.
Авторизация | Регистрация
Хочешь лучшие торренты? Добавь свой email!
Добавить

Торрент скачать бесплатно

» » Григорий-Азиз | Фишки Ворда и Экселя [Word and Excel] (2017) PCRec [H.264] торрент скачать бесплатно




    Григорий-Азиз | Фишки Ворда и Экселя [Word and Excel] (2017) PCRec [H.264] торрент скачать бесплатно

    Опубликовал: Админ | Дата: 1-11-2017, 05:01 | Просмотров: 0

    Автор (режиссер): Григорий-Азиз
    Жанр: Видеокурс

    Описание

    Для кого этот курс!
    В первую очередь настоятельно рекомендую данный курс школьникам и студентам. Как говорится, must have. Вы сильно облегчите себе жизнь. Также курс пригодится писателям, журналистам, блогерам, которые работают с вордом. Ну и всем, кто хочет повысить эффективность.
    Мой опыт!
    Я работал в ворде и экселе в школе около 5 лет и 6 лет в универе. И все это время я думал, что я профи. Но оказалось совсем не так. Только в конце этих 11 лет я более менее разобрался с базовыми инструментами!!! А ведь все эти 10-11 лет я работал крайне неэффективно. Тратил ужасно много времени на ненужные операции, терял документы, занимался глупой бесполезной рутиной. В общем, я хочу, чтобы вы не повторяли моих ошибок.
    Девиз курса !
    Минимум рутины. Максимум работы над содержанием. Поручи рутину ворду.
    На что сделан упор!
    Упор сделан на те операции, которые занимают больше всего времени и сил. Применив техники курса, вы получите колоссальный эффект.
    Продолжительность: 07: 41: 27
    Качество видео: PCRec
    Видео: AVC/H.264, 1366x768, ~758kbps
    Аудио: AAC, 1 ch, 96 Kbps

    General
    Complete name : D: ТоррентыWordExcel!ВОРДФишка 1 Обзор, разные фишкиОбзорный..mp4
    Format : MPEG-4
    Format profile : Base Media/Version 2
    Codec ID : mp42 (mp41/isom)
    File size : 250 MiB
    Duration : 40 min 39 s
    Overall bit rate : 858 kb/s
    Video
    ID : 1
    Format : AVC
    Format/Info : Advanced Video Codec
    Format profile : Baseline@L4
    Format settings : 1 Ref Frames
    Format settings, CABAC : No
    Format settings, RefFrames : 1 frame
    Format settings, GOP : M=1, N=5
    Codec ID : avc1
    Codec ID/Info : Advanced Video Coding
    Duration : 40 min 39 s
    Source duration : 40 min 38 s
    Bit rate : 758 kb/s
    Width : 1 366 pixels
    Height : 768 pixels
    Display aspect ratio : 16: 9
    Frame rate : 9.984 FPS
    Color space : YUV
    Chroma subsampling : 4: 2: 0
    Bit depth : 8 bits
    Scan type : Progressive
    Bits/(Pixel*Frame) : 0.072
    Stream size : 220 MiB (88%)
    Source stream size : 220 MiB (88%)
    mdhd_Duration : 2438854
    Audio
    ID : 2
    Format : AAC
    Format/Info : Advanced Audio Codec
    Format profile : LC
    Codec ID : mp4a-40-2
    Duration : 40 min 39 s
    Bit rate mode : Constant
    Bit rate : 96.0 kb/s
    Channel(s) : 1 channel
    Channel positions : Front: C
    Sampling rate : 44.1 kHz
    Frame rate : 43.066 FPS (1024 SPF)
    Compression mode : Lossy
    Stream size : 28.3 MiB (11%)


    Григорий-Азиз | Фишки Ворда и Экселя [Word and Excel] (2017) PCRec [H.264]
    загрузка...
    Рейтинг →
     (голосов: 1, оценка 4/5, голосовать можно 1 раз )

    Другие торренты по теме:



      Комментарии (0):

      Информация

      Информация

        Посетители, находящиеся в группе Гости, не могут оставлять комментарии в данной новости.

        ↓ Меню




        ↓ Опрос

        Вы добавили сайт в закладки?
        Да
        Нет


        Top 10 за месяц (Книги)

        Андрей Сазонов | Мифы о нашем теле. Научный подход к примитивным вопросам (2017) [FB2]

        (скачиваний: 30)
        Элла Берту, Сьюзен Элдеркин | Книга как лекарство. Скорая литературная помощь от А до Я (2016) [FB2, EPUB]

        (скачиваний: 27)
        Оуэйн Сервис, Рори Галлахер | Начинай с малого. Научно доказанная система достижения больших целей (2018) [PDF, FB2, EPUB]

        (скачиваний: 24)
        Григорий-Азиз | Фишки Ворда и Экселя [Word and Excel] (2017) PCRec [H.264]

        (скачиваний: 23)
        Юрий Подольский | Делаем сами коптильни, грили, мангалы, уличные печи (2017) [PDF, FB2, EPUB]

        (скачиваний: 22)
        Юрий Морозов | Ремонт дачного дома своими руками. Полное руководство (2017) [PDF]

        (скачиваний: 21)
        Кевин Келли | Неизбежно. 12 технологических трендов, которые определяют наше будущее (2017) [PDF, EPUB, MOBI]

        (скачиваний: 21)
        Дмитрий Петров, Алексей Кржижевский | Серия: Полиглот. Выучим иностранный язык за 16 часов [5 книг] (2014-2015) [PDF, DJVU]

        (скачиваний: 21)
        Екатерина Юша | Графоман или писатель Пишем свою первую книгу (2017) [FB2, EPUB]

        (скачиваний: 20)
        Наталья Корикова | Полезные и вкусные бутерброды. Алгоритм приготовления и рецепты (2017) [PDF]

        (скачиваний: 20)