.
Авторизация | Регистрация
Хочешь лучшие торренты? Добавь свой email!
Добавить

Торрент скачать бесплатно

» » Бадди Ли | TRX Essentials Cardio Circuit Workout (2009) DVDRip [EN] торрент скачать бесплатно




    Бадди Ли | TRX Essentials Cardio Circuit Workout (2009) DVDRip [EN] торрент скачать бесплатно

    Опубликовал: Админ | Дата: 29-10-2017, 05:00 | Просмотров: 1

    Автор (режиссер): Бадди Ли
    Жанр: Функциональный тренинг, фитнес

    Описание

    Войдите в форму быстро с Cardio Circuit. Эта заряжающая супер-энергией тренировка, сочетающая в себе силовой и кардио-тренинг. Наша уникальная интервальная программа представлена компанией TRX® Suspension Training® в виде анаэробной, жиросжигающей тренировки, преимущественно благодаря преобладанию прыжков через скакалку, под руководством друга Олимпийских чемпионов Бадди Ли, который разработал революционные тренировки с использованием скакалки, для спортсменов.
    В комплекте присутствует руководство по тренировке.
    Продолжительность: 01: 36: 37
    Качество видео: DVDRip
    Перевод: Отсутствует
    Язык озвучки: Английский
    Видео: Xvid, 720x400, ~1243 Kbps
    Аудио: MP3, 2 ch, 128 Kbps

    Общее
    Полное имя : I: РазноеЗдоровьеTRXTRX Essentials Cardio Circuit Workout1. Jump Rope Clinic.avi
    Формат : AVI
    Формат/Информация : Audio Video Interleave
    Размер файла : 163 Мбайт
    Продолжительность : 16 м. 30 с.
    Общий поток : 1381 Кбит/сек
    Название фильма : TRX Essentials Cardio Circuit_01 Jump Rope Clinic
    Программа кодирования : VirtualDubMod 1.5.10.2 (build 2540/release)
    Авторское право : Olu6ka
    Видео
    Идентификатор : 0
    Формат : MPEG-4 Visual
    Профиль формата : Advanced Simple@L5
    Настройки формата : BVOP1
    Параметр BVOP формата : 1
    Параметр QPel формата : Нет
    Параметр GMC формата : Без точки перехода
    Параметр матрицы формата : Default (MPEG)
    Идентификатор кодека : XVID
    Идентификатор кодека/Подсказка : XviD
    Продолжительность : 16 м. 30 с.
    Битрейт : 1243 Кбит/сек
    Ширина : 720 пикселей
    Высота : 400 пикселей
    Соотношение сторон : 16: 9
    Частота кадров : 23, 976 (24000/1001) кадра/сек
    Цветовое пространство : YUV
    Субдискретизация насыщенности : 4: 2: 0
    Битовая глубина : 8 бит
    Тип развёртки : Чересстрочная
    Порядок развёртки : Нижнее поле первое
    Метод сжатия : С потерями
    Бит/(Пиксели*Кадры) : 0.180
    Размер потока : 147 Мбайт (90%)
    Библиотека кодирования : XviD 1.1.2 (UTC 2006-11-01)
    Аудио
    Идентификатор : 1
    Формат : MPEG Audio
    Версия формата : Version 1
    Профиль формата : Layer 3
    Настройки формата : Joint stereo/MS Stereo
    Режим : Joint stereo
    Расширение режима : MS Stereo
    Идентификатор кодека : 55
    Идентификатор кодека/Подсказка : MP3
    Продолжительность : 16 м. 30 с.
    Вид битрейта : Постоянный
    Битрейт : 128 Кбит/сек
    Каналы : 2 канала
    Частота : 48, 0 КГц
    Метод сжатия : С потерями
    Размер потока : 15, 1 Мбайт (9%)
    Выравнивание : Разделение по промежуткам
    Продолжительность промежутка : 42 мс. (1, 00 видеокадр)
    Время предзагрузки промежутка : 500 мс.
    Общее
    Полное имя : I: РазноеЗдоровьеTRXTRX Essentials Cardio Circuit Workout2. Workout.avi
    Формат : AVI
    Формат/Информация : Audio Video Interleave
    Размер файла : 549 Мбайт
    Продолжительность : 1 ч. 8 м.
    Общий поток : 1127 Кбит/сек
    Название фильма : TRX Essentials Cardio Circuit_02 Workout
    Программа кодирования : VirtualDubMod 1.5.10.2 (build 2540/release)
    Авторское право : Olu6ka
    Видео
    Идентификатор : 0
    Формат : MPEG-4 Visual
    Профиль формата : Advanced Simple@L5
    Настройки формата : BVOP1
    Параметр BVOP формата : 1
    Параметр QPel формата : Нет
    Параметр GMC формата : Без точки перехода
    Параметр матрицы формата : Default (MPEG)
    Идентификатор кодека : XVID
    Идентификатор кодека/Подсказка : XviD
    Продолжительность : 1 ч. 8 м.
    Битрейт : 989 Кбит/сек
    Ширина : 720 пикселей
    Высота : 400 пикселей
    Соотношение сторон : 16: 9
    Частота кадров : 23, 976 (24000/1001) кадра/сек
    Цветовое пространство : YUV
    Субдискретизация насыщенности : 4: 2: 0
    Битовая глубина : 8 бит
    Тип развёртки : Чересстрочная
    Порядок развёртки : Нижнее поле первое
    Метод сжатия : С потерями
    Бит/(Пиксели*Кадры) : 0.143
    Размер потока : 482 Мбайт (88%)
    Библиотека кодирования : XviD 1.1.2 (UTC 2006-11-01)
    Аудио
    Идентификатор : 1
    Формат : MPEG Audio
    Версия формата : Version 1
    Профиль формата : Layer 3
    Настройки формата : Joint stereo/MS Stereo
    Режим : Joint stereo
    Расширение режима : MS Stereo
    Идентификатор кодека : 55
    Идентификатор кодека/Подсказка : MP3
    Продолжительность : 1 ч. 8 м.
    Вид битрейта : Постоянный
    Битрейт : 128 Кбит/сек
    Каналы : 2 канала
    Частота : 48, 0 КГц
    Метод сжатия : С потерями
    Задержка видео : 5 мс.
    Размер потока : 62, 3 Мбайт (11%)
    Выравнивание : Разделение по промежуткам
    Продолжительность промежутка : 42 мс. (1, 00 видеокадр)
    Время предзагрузки промежутка : 500 мс.
    Общее
    Полное имя : I: РазноеЗдоровьеTRXTRX Essentials Cardio Circuit WorkoutTRX SetUp Use Other Programs.avi
    Формат : AVI
    Формат/Информация : Audio Video Interleave
    Размер файла : 59, 3 Мбайт
    Продолжительность : 7 м. 55 с.
    Общий поток : 1045 Кбит/сек
    Название фильма : TRX_SetUp Use Other Programs
    Программа кодирования : VirtualDubMod 1.5.10.2 (build 2540/release)
    Авторское право : Olu6ka
    Видео
    Идентификатор : 0
    Формат : MPEG-4 Visual
    Профиль формата : Advanced Simple@L5
    Настройки формата : BVOP1
    Параметр BVOP формата : 1
    Параметр QPel формата : Нет
    Параметр GMC формата : Без точки перехода
    Параметр матрицы формата : Default (MPEG)
    Идентификатор кодека : XVID
    Идентификатор кодека/Подсказка : XviD
    Продолжительность : 7 м. 55 с.
    Битрейт : 908 Кбит/сек
    Ширина : 720 пикселей
    Высота : 400 пикселей
    Соотношение сторон : 16: 9
    Частота кадров : 23, 976 (24000/1001) кадра/сек
    Цветовое пространство : YUV
    Субдискретизация насыщенности : 4: 2: 0
    Битовая глубина : 8 бит
    Тип развёртки : Чересстрочная
    Порядок развёртки : Нижнее поле первое
    Метод сжатия : С потерями
    Бит/(Пиксели*Кадры) : 0.131
    Размер потока : 51, 5 Мбайт (87%)
    Библиотека кодирования : XviD 1.1.2 (UTC 2006-11-01)
    Аудио
    Идентификатор : 1
    Формат : MPEG Audio
    Версия формата : Version 1
    Профиль формата : Layer 3
    Настройки формата : Joint stereo/MS Stereo
    Режим : Joint stereo
    Расширение режима : MS Stereo
    Идентификатор кодека : 55
    Идентификатор кодека/Подсказка : MP3
    Продолжительность : 7 м. 55 с.
    Вид битрейта : Постоянный
    Битрейт : 128 Кбит/сек
    Каналы : 2 канала
    Частота : 48, 0 КГц
    Метод сжатия : С потерями
    Задержка видео : 23 мс.
    Размер потока : 7, 26 Мбайт (12%)
    Выравнивание : Разделение по промежуткам
    Продолжительность промежутка : 42 мс. (1, 00 видеокадр)
    Время предзагрузки промежутка : 500 мс.
    Общее
    Полное имя : I: РазноеЗдоровьеTRXTRX Essentials Cardio Circuit WorkoutTRX Who is Buddy Lee.avi
    Формат : AVI
    Формат/Информация : Audio Video Interleave
    Размер файла : 31, 1 Мбайт
    Продолжительность : 4 м. 6 с.
    Общий поток : 1059 Кбит/сек
    Программа кодирования : VirtualDubMod 1.5.10.2 (build 2540/release)
    Библиотека кодирования : VirtualDubMod build 2540/release
    Видео
    Идентификатор : 0
    Формат : MPEG-4 Visual
    Профиль формата : Advanced Simple@L5
    Настройки формата : BVOP1
    Параметр BVOP формата : 1
    Параметр QPel формата : Нет
    Параметр GMC формата : Без точки перехода
    Параметр матрицы формата : Default (MPEG)
    Идентификатор кодека : XVID
    Идентификатор кодека/Подсказка : XviD
    Продолжительность : 4 м. 6 с.
    Битрейт : 921 Кбит/сек
    Ширина : 720 пикселей
    Высота : 400 пикселей
    Соотношение сторон : 16: 9
    Частота кадров : 23, 976 (24000/1001) кадра/сек
    Цветовое пространство : YUV
    Субдискретизация насыщенности : 4: 2: 0
    Битовая глубина : 8 бит
    Тип развёртки : Чересстрочная
    Порядок развёртки : Нижнее поле первое
    Метод сжатия : С потерями
    Бит/(Пиксели*Кадры) : 0.133
    Размер потока : 27, 1 Мбайт (87%)
    Библиотека кодирования : XviD 1.1.2 (UTC 2006-11-01)
    Аудио
    Идентификатор : 1
    Формат : MPEG Audio
    Версия формата : Version 1
    Профиль формата : Layer 3
    Настройки формата : Joint stereo/MS Stereo
    Режим : Joint stereo
    Расширение режима : MS Stereo
    Идентификатор кодека : 55
    Идентификатор кодека/Подсказка : MP3
    Продолжительность : 4 м. 6 с.
    Вид битрейта : Постоянный
    Битрейт : 128 Кбит/сек
    Каналы : 2 канала
    Частота : 48, 0 КГц
    Метод сжатия : С потерями
    Размер потока : 3, 76 Мбайт (12%)
    Выравнивание : Разделение по промежуткам
    Продолжительность промежутка : 42 мс. (1, 00 видеокадр)
    Время предзагрузки промежутка : 500 мс.
    Библиотека кодирования : LAME3.98.2
    Общее
    Полное имя : I: РазноеЗдоровьеTRXTRX Essentials Cardio Circuit WorkoutWorkout Guide.pdf
    Формат : PDF
    Версия формата : 1.6
    Размер файла : 12, 2 Мбайт
    Текст
    Формат : PDF
    Скриншоты:


    Время раздачи: С 09: 00 до 23: 30 (до появления первых 3-5 скачавших)


    Бадди Ли | TRX Essentials Cardio Circuit Workout (2009) DVDRip [EN]
    загрузка...
    Рейтинг →
     (голосов: 1, оценка 5/5, голосовать можно 1 раз )

    Другие торренты по теме:

  • Бадди Хатчинс / Buddy Hutchins (2015) WEB-DLRip [VO] скачать через торрент бесплатно
  • Бадди едет на запад / Occhio alla penna (1981) DVDRip [H.264] [VO] скачать через торрент бесплатно
  • Бадди Ли | Тренировки со скакалкой (2014) [PDF]


    • Комментарии (0):

      Информация

      Информация

        Посетители, находящиеся в группе Гости, не могут оставлять комментарии в данной новости.

        ↓ Меню




        ↓ Опрос

        Вы добавили сайт в закладки?
        Да
        Нет


        Top 10 за месяц (Книги)

        Евгений Старухин | Цикл «Лесовик» [4 книги. Обновляемая] (2015-2017) [FB2]

        (скачиваний: 31)
        Книжная серия | «В одном томе» [157 книг] (2005-2017) [FB2]

        (скачиваний: 25)
        Сергей Тармашев | Каждому своё (2017) [FB2]

        (скачиваний: 23)
        CHIP | DVD приложение к журналу CHIP №12 (Ноябрь 2017) [unpacked]

        (скачиваний: 22)
        Джо Диспенза | Сверхъестественный разум. Как обычные люди делают невозможное с помощью силы подсознания (2017) [PDF]

        (скачиваний: 22)
        Полина Сухова | Инструкции по эксплуатации мозга для обывателя (2017) [FB2]

        (скачиваний: 21)
        Книжная серия | Мировой бестселлер [102 книги] (2010-2017) [FB2]

        (скачиваний: 19)
        Книжная серия | «Двойной артефакт-детектив» [49 книг] (2012-2017) [FB2]

        (скачиваний: 17)
        Александр Михайловский, Александр Харников | «Гроза» против «Барбароссы» (2017) [FB2]

        (скачиваний: 16)
        Голубев Андрей | Ремонт ЖК телевизоров и мониторов (2015) CamRip [H.264 / 720p] скачать через торрент бесплатно

        (скачиваний: 16)