.
Авторизация | Регистрация
Хочешь лучшие торренты? Добавь свой email!
Добавить

Торрент скачать бесплатно

» » Лукас Бигетти | Английский язык за 21 час (2017) PCRec [H.264] торрент скачать бесплатно




    Лукас Бигетти | Английский язык за 21 час (2017) PCRec [H.264] торрент скачать бесплатно

    Опубликовал: Админ | Дата: 9-10-2017, 05:00 | Просмотров: 0

    Автор (режиссер): Лукас Бигетти
    Жанр: Английский язык

    Описание

    Теперь и вы можете заговорить по-английски за 21 час! Без зубрежки, естественно и правильно
    Нам потребовалось много лет проб и ошибок, чтобы разработать идеальный метод для начинающих с нуля или у кого уже есть некая база изучаемого языка. Мы рады сообщить, что наши ученики добились впечатляющих результатов! Теперь и вы можете заговорить по-английски за 21 час! Без зубрежки, в расслабленной, но интенсивной форме. Используя специально подобранные для вас упражнения для проработки и закрепления. С правильно поставленным произношением.
    Продолжительность: 21: 44: 11
    Качество видео: PCRec
    Видео: AVC/H.264, 640x360, ~262 Kbps
    Аудио: AAC, 2 ch, 95 Kbps

    omplete name : C: \Курс .Английский язык за 21 час. Лукас Бигетти\English 01 360.mp4
    Format : MPEG-4
    Format profile : Base Media/Version 2
    Codec ID : mp42 (isom/mp42)
    File size : 180 MiB
    Duration : 1 h 10 min
    Overall bit rate mode : Variable
    Overall bit rate : 356 kb/s
    Encoded date : UTC 2017-05-24 18: 37: 24
    Tagged date : UTC 2017-05-24 18: 37: 24
    gsst : 0
    gstd : 4234460
    Video
    ID : 1
    Format : AVC
    Format/Info : Advanced Video Codec
    Format profile : Baseline@L3
    Format settings, CABAC : No
    Format settings, ReFrames : 1 frame
    Format settings, GOP : M=1, N=60
    Codec ID : avc1
    Codec ID/Info : Advanced Video Coding
    Duration : 1 h 10 min
    Bit rate : 257 kb/s
    Maximum bit rate : 706 kb/s
    Width : 640 pixels
    Height : 360 pixels
    Display aspect ratio : 16: 9
    Frame rate mode : Constant
    Frame rate : 30.000 FPS
    Color space : YUV
    Chroma subsampling : 4: 2: 0
    Bit depth : 8 bits
    Scan type : Progressive
    Bits/(Pixel*Frame) : 0.037
    Stream size : 130 MiB (72%)
    Tagged date : UTC 2017-05-24 18: 37: 38
    Color range : Limited
    Color primaries : BT.709
    Transfer characteristics : BT.709
    Matrix coefficients : BT.709
    Audio
    ID : 2
    Format : AAC
    Format/Info : Advanced Audio Codec
    Format profile : LC
    Codec ID : 40
    Duration : 1 h 10 min
    Bit rate mode : Variable
    Bit rate : 96.0 kb/s
    Maximum bit rate : 102 kb/s
    Channel(s) : 2 channels
    Channel positions : Front: L R
    Sampling rate : 44.1 kHz
    Frame rate : 43.066 FPS (1024 spf)
    Compression mode : Lossy
    Stream size : 48.5 MiB (27%)
    Title : IsoMedia File Produced by Google, 5-11-2011
    Encoded date : UTC 2017-05-24 18: 37: 31
    Tagged date : UTC 2017-05-24 18: 37: 38
    omplete name : C: \Курс .Английский язык за 21 час. Лукас Бигетти\English 02 360.mp4
    Format : MPEG-4
    Format profile : Base Media/Version 2
    Codec ID : mp42 (isom/mp42)
    File size : 171 MiB
    Duration : 1 h 6 min
    Overall bit rate mode : Variable
    Overall bit rate : 361 kb/s
    Encoded date : UTC 2017-05-26 18: 16: 32
    Tagged date : UTC 2017-05-26 18: 16: 32
    gsst : 0
    gstd : 3970611
    Video
    ID : 1
    Format : AVC
    Format/Info : Advanced Video Codec
    Format profile : Baseline@L3
    Format settings, CABAC : No
    Format settings, ReFrames : 1 frame
    Format settings, GOP : M=1, N=60
    Codec ID : avc1
    Codec ID/Info : Advanced Video Coding
    Duration : 1 h 6 min
    Bit rate : 262 kb/s
    Maximum bit rate : 656 kb/s
    Width : 640 pixels
    Height : 360 pixels
    Display aspect ratio : 16: 9
    Frame rate mode : Constant
    Frame rate : 24.389 FPS
    Color space : YUV
    Chroma subsampling : 4: 2: 0
    Bit depth : 8 bits
    Scan type : Progressive
    Bits/(Pixel*Frame) : 0.047
    Stream size : 124 MiB (73%)
    Tagged date : UTC 2017-05-26 18: 17: 03
    Color range : Limited
    Color primaries : BT.709
    Transfer characteristics : BT.709
    Matrix coefficients : BT.709
    Audio
    ID : 2
    Format : AAC
    Format/Info : Advanced Audio Codec
    Format profile : LC
    Codec ID : 40
    Duration : 1 h 6 min
    Bit rate mode : Variable
    Bit rate : 96.0 kb/s
    Maximum bit rate : 101 kb/s
    Channel(s) : 2 channels
    Channel positions : Front: L R
    Sampling rate : 44.1 kHz
    Frame rate : 43.066 FPS (1024 spf)
    Compression mode : Lossy
    Stream size : 45.4 MiB (27%)
    Title : IsoMedia File Produced by Google, 5-11-2011
    Encoded date : UTC 2017-05-26 18: 16: 48
    Tagged date : UTC 2017-05-26 18: 17: 03
    Complete name : C: \Курс .Английский язык за 21 час. Лукас Бигетти\English 03 360.mp4
    Format : MPEG-4
    Format profile : Base Media/Version 2
    Codec ID : mp42 (isom/mp42)
    File size : 159 MiB
    Duration : 1 h 1 min
    Overall bit rate mode : Variable
    Overall bit rate : 359 kb/s
    Encoded date : UTC 2017-05-29 18: 16: 02
    Tagged date : UTC 2017-05-29 18: 16: 02
    gsst : 0
    gstd : 3704650
    Video
    ID : 1
    Format : AVC
    Format/Info : Advanced Video Codec
    Format profile : Baseline@L3
    Format settings, CABAC : No
    Format settings, ReFrames : 1 frame
    Codec ID : avc1
    Codec ID/Info : Advanced Video Coding
    Duration : 1 h 1 min
    Bit rate : 260 kb/s
    Maximum bit rate : 665 kb/s
    Width : 640 pixels
    Height : 360 pixels
    Display aspect ratio : 16: 9
    Frame rate mode : Constant
    Frame rate : 30.000 FPS
    Color space : YUV
    Chroma subsampling : 4: 2: 0
    Bit depth : 8 bits
    Scan type : Progressive
    Bits/(Pixel*Frame) : 0.038
    Stream size : 115 MiB (73%)
    Tagged date : UTC 2017-05-29 18: 16: 29
    Color range : Limited
    Color primaries : BT.709
    Transfer characteristics : BT.709
    Matrix coefficients : BT.709
    Audio
    ID : 2
    Format : AAC
    Format/Info : Advanced Audio Codec
    Format profile : LC
    Codec ID : 40
    Duration : 1 h 1 min
    Bit rate mode : Variable
    Bit rate : 96.0 kb/s
    Maximum bit rate : 102 kb/s
    Channel(s) : 2 channels
    Channel positions : Front: L R
    Sampling rate : 44.1 kHz
    Frame rate : 43.066 FPS (1024 spf)
    Compression mode : Lossy
    Stream size : 42.4 MiB (27%)
    Title : IsoMedia File Produced by Google, 5-11-2011
    Encoded date : UTC 2017-05-29 18: 16: 16
    Tagged date : UTC 2017-05-29 18: 16: 29
    Complete name : C: \Курс .Английский язык за 21 час. Лукас Бигетти\English 04 360.mp4
    Format : MPEG-4
    Format profile : Base Media/Version 2
    Codec ID : mp42 (isom/mp42)
    File size : 171 MiB
    Duration : 1 h 9 min
    Overall bit rate mode : Variable
    Overall bit rate : 345 kb/s
    Encoded date : UTC 2017-05-31 18: 18: 53
    Tagged date : UTC 2017-05-31 18: 18: 53
    gsst : 0
    gstd : 4149428
    Video
    ID : 1
    Format : AVC
    Format/Info : Advanced Video Codec
    Format profile : Baseline@L3
    Format settings, CABAC : No
    Format settings, ReFrames : 1 frame
    Codec ID : avc1
    Codec ID/Info : Advanced Video Coding
    Duration : 1 h 9 min
    Bit rate : 246 kb/s
    Maximum bit rate : 568 kb/s
    Width : 640 pixels
    Height : 360 pixels
    Display aspect ratio : 16: 9
    Frame rate mode : Constant
    Frame rate : 30.000 FPS
    Color space : YUV
    Chroma subsampling : 4: 2: 0
    Bit depth : 8 bits
    Scan type : Progressive
    Bits/(Pixel*Frame) : 0.036
    Stream size : 122 MiB (71%)
    Tagged date : UTC 2017-05-31 18: 19: 15
    Color range : Limited
    Color primaries : BT.709
    Transfer characteristics : BT.709
    Matrix coefficients : BT.709
    Audio
    ID : 2
    Format : AAC
    Format/Info : Advanced Audio Codec
    Format profile : LC
    Codec ID : 40
    Duration : 1 h 9 min
    Bit rate mode : Variable
    Bit rate : 96.0 kb/s
    Maximum bit rate : 102 kb/s
    Channel(s) : 2 channels
    Channel positions : Front: L R
    Sampling rate : 44.1 kHz
    Frame rate : 43.066 FPS (1024 spf)
    Compression mode : Lossy
    Stream size : 47.5 MiB (28%)
    Title : IsoMedia File Produced by Google, 5-11-2011
    Encoded date : UTC 2017-05-31 18: 19: 05
    Tagged date : UTC 2017-05-31 18: 19: 15
    1 неделя: основы (5 занятий)
    Мы учим вас самым важным глаголам. Вы будете приятно удивлены тому, как много вы сможете сказать, как только научитесь пользоваться десятками простых глаголов. Мы начнем с очень простых конструкций в начале и вскоре вы сможете сами составлять целые предложения! Мы также поработаем над постановкой правильного произношения.
    2 неделя: закрепление (5 занятий)
    Как только вы изучите базовые структуры языка и отработаете произношение, самое время начать применять полученные знания на практике. Ничего зазубривать не надо. Вместо этого, вы освоите спряжение глаголов в расслабленной, но интенсивной форме, используя упражнения для проработки грамматики.
    3 и 4 недели: разговорная практика (11 занятий)
    Теперь, когда у вас уже будет хорошая база, самое время увеличить словарный запас, чтобы вы могли более свободно пользоваться языком . Опять же, ничего заучивать не надо, мы будем добавлять новые слова шаг за шагом в интерактивных упражнениях.
    1 PDF Материалы

    2 Anki Материалы

    Anki – это прекрасное приложение, помогающее в изучении иностранных языков, а также тренировки памяти. Суть программы заключается в использовании карточек с иностранными словами и их переводом. В простейших карточках перед вами появляется слово, которое вам нужно выучить. После этого нужно нажать кнопку Показать ответ. Перед вами появится перевод этого слова или же фразы. Далее вам нужно будет указать, насколько просто для вас было вспомнить ответ. От этого зависит, когда в следующий вы раз встретите эту карточку. Если вы не смогли ответить, то на протяжении этого сеанса увидите данную карточку ещё раз. Таким образом, программа составляет индивидуальную систему обучения, которая поможет быстрее выучить новые слова, не забывая при этом старые.
    Скриншоты:


    Время раздачи: Пн-Пт с 18: 00 до 22: 00 (до появления первых 3-5 скачавших)

    Лукас Бигетти | Английский язык за 21 час (2017) PCRec [H.264]
    загрузка...
    Рейтинг →
     (голосов: 1, оценка 4/5, голосовать можно 1 раз )

    Другие торренты по теме:

  • Бокс. Руслан Чагаев - Лукас Браун (+ Андеркарт). (05.03.2016) HDTVRip [H.264 / 720p-LQ]
  • Майкл Лукас | Стамбульский оракул (2016) [MP3]
  • Ольга Лукас | Бульон терзаний (2016) [MP3]
  • Ольга Лукас и Андрей Степанов | Эликсир князя Собакина (2013) [MP3]


    • Комментарии (0):

      Информация

      Информация

        Посетители, находящиеся в группе Гости, не могут оставлять комментарии в данной новости.

        ↓ Меню




        ↓ Опрос

        Вы добавили сайт в закладки?
        Да
        Нет


        Top 10 за месяц (Книги)

        Джиллиан Майклз | Знаменитая программа Джиллиан Майклз: Стройное и здоровое тело за 30 дней (2016) [FB2]

        (скачиваний: 54)
        И.Б. Фефилова | Антивозрастная медицина. Современная энциклопедия (2015) [PDF, EPUB]

        (скачиваний: 31)
        Михаил Диденко | Русский стиль выживания. Как остаться в живых одному в лесу (2017) [PDF, FB2]

        (скачиваний: 27)
        Михаил Лабковский | Хочу и буду: Принять себя, полюбить жизнь и стать счастливым (2017) [FB2, EPUB]

        (скачиваний: 24)
        Александр Клинге | Ленин. Самая правдивая биография Ильича (2017) [FB2, EPUB]

        (скачиваний: 23)
        Давид Дубницкий | Жанровый НЮ-портрет (2016) PCRec

        (скачиваний: 20)
        Джек Дэниелс | От 800 метров до марафона (2014) [FB2]

        (скачиваний: 20)
        Дэвид Агус | Завтра начинается сегодня. Как воспользоваться достижениями anti-age медицины (2017) [FB2, EPUB]

        (скачиваний: 20)
        Евгений Старухин | Цикл «Лесовик» [4 книги. Обновляемая] (2015-2017) [FB2]

        (скачиваний: 20)
        Джон Дуглас, Марк Олшейкер | Психологический портрет убийцы. Методики ФБР (2016) [FB2, EPUB]

        (скачиваний: 19)