.
Авторизация | Регистрация
Хочешь лучшие торренты? Добавь свой email!
Добавить

Торрент скачать бесплатно

» » Ирина Булыгина | Трейдинг на 100% результат (2017) PCRec [H.264 / 720p-LQ] торрент скачать бесплатно




    Ирина Булыгина | Трейдинг на 100% результат (2017) PCRec [H.264 / 720p-LQ] торрент скачать бесплатно

    Опубликовал: Админ | Дата: 5-09-2017, 05:00 | Просмотров: 1

    Автор (режиссер): Ирина Булыгина
    Производство: Bulygina Co.
    Жанр: Трейдинг
    Официальный сайт

    Описание

    Как уверенно зарабатывать на Московской бирже и приумножить свой капитал?
    Этот курс обучения был специально разработан с целью показать те торговые приемы и фишки, которые позволят Вам совершать стабильно прибыльные сделки.
    Продолжительность: 13: 11: 58
    Качество видео: PCRec
    Видео: AVC/H.264, 1280x720, ~145-1419 kbps
    Аудио: AAC, 2 ch, 126 kbps

    General
    Complete name : E: Булыгина - Трейдинг на 100% результат 2017Аномальные объемы на акциях. Идеи для покупок.mp4
    Format : MPEG-4
    Format profile : Base Media/Version 2
    Codec ID : mp42 (isom/mp42)
    File size : 31.5 MiB
    Duration : 17 min 54 s
    Overall bit rate mode : Variable
    Overall bit rate : 246 kb/s
    Encoded date : UTC 2017-06-22 12: 05: 33
    Tagged date : UTC 2017-06-22 12: 05: 33
    gsst : 0
    gstd : 1074247
    Video
    ID : 1
    Format : AVC
    Format/Info : Advanced Video Codec
    Format profile : Main@L3.1
    Format settings, CABAC : Yes
    Format settings, ReFrames : 3 frames
    Codec ID : avc1
    Codec ID/Info : Advanced Video Coding
    Duration : 17 min 54 s
    Bit rate : 117 kb/s
    Width : 1 280 pixels
    Height : 720 pixels
    Display aspect ratio : 16: 9
    Frame rate mode : Constant
    Frame rate : 30.000 FPS
    Color space : YUV
    Chroma subsampling : 4: 2: 0
    Bit depth : 8 bits
    Scan type : Progressive
    Bits/(Pixel*Frame) : 0.004
    Stream size : 14.9 MiB (47%)
    Title : ISO Media file produced by Google Inc.
    Encoded date : UTC 2017-06-22 12: 05: 33
    Tagged date : UTC 2017-06-22 12: 05: 33
    Color range : Limited
    Color primaries : BT.709
    Transfer characteristics : BT.709
    Matrix coefficients : BT.709
    Audio
    ID : 2
    Format : AAC
    Format/Info : Advanced Audio Codec
    Format profile : LC
    Codec ID : 40
    Duration : 17 min 54 s
    Bit rate mode : Variable
    Bit rate : 126 kb/s
    Channel(s) : 2 channels
    Channel positions : Front: L R
    Sampling rate : 44.1 kHz
    Frame rate : 43.066 FPS (1024 spf)
    Compression mode : Lossy
    Stream size : 16.1 MiB (51%)
    Title : ISO Media file produced by Google Inc.
    Encoded date : UTC 2017-06-22 12: 05: 33
    Tagged date : UTC 2017-06-22 12: 05: 33
    General
    Complete name : E: Булыгина - Трейдинг на 100% результат 2017Как сократить количество стоп лоссов.mp4
    Format : MPEG-4
    Format profile : Base Media/Version 2
    Codec ID : mp42 (isom/mp42)
    File size : 25.9 MiB
    Duration : 15 min 7 s
    Overall bit rate mode : Variable
    Overall bit rate : 239 kb/s
    Encoded date : UTC 2017-08-22 18: 48: 19
    Tagged date : UTC 2017-08-22 18: 48: 19
    gsst : 0
    gstd : 907575
    Video
    ID : 1
    Format : AVC
    Format/Info : Advanced Video Codec
    Format profile : Main@L3.1
    Format settings, CABAC : Yes
    Format settings, ReFrames : 3 frames
    Codec ID : avc1
    Codec ID/Info : Advanced Video Coding
    Duration : 15 min 7 s
    Bit rate : 110 kb/s
    Width : 1 280 pixels
    Height : 718 pixels
    Display aspect ratio : 16: 9
    Frame rate mode : Constant
    Frame rate : 30.000 FPS
    Color space : YUV
    Chroma subsampling : 4: 2: 0
    Bit depth : 8 bits
    Scan type : Progressive
    Bits/(Pixel*Frame) : 0.004
    Stream size : 11.9 MiB (46%)
    Title : ISO Media file produced by Google Inc.
    Encoded date : UTC 2017-08-22 18: 48: 19
    Tagged date : UTC 2017-08-22 18: 48: 19
    Color range : Limited
    Color primaries : BT.709
    Transfer characteristics : BT.709
    Matrix coefficients : BT.709
    Audio
    ID : 2
    Format : AAC
    Format/Info : Advanced Audio Codec
    Format profile : LC
    Codec ID : 40
    Duration : 15 min 7 s
    Bit rate mode : Variable
    Bit rate : 126 kb/s
    Channel(s) : 2 channels
    Channel positions : Front: L R
    Sampling rate : 44.1 kHz
    Frame rate : 43.066 FPS (1024 spf)
    Compression mode : Lossy
    Stream size : 13.6 MiB (52%)
    Title : ISO Media file produced by Google Inc.
    Encoded date : UTC 2017-08-22 18: 48: 19
    Tagged date : UTC 2017-08-22 18: 48: 19
    General
    Complete name : E: Булыгина - Трейдинг на 100% результат 2017С чего начать свой путь в трейдинге Трейдинг на 100% результат .mp4
    Format : MPEG-4
    Format profile : Base Media/Version 2
    Codec ID : mp42 (isom/mp42)
    File size : 190 MiB
    Duration : 17 min 8 s
    Overall bit rate mode : Variable
    Overall bit rate : 1 548 kb/s
    Encoded date : UTC 2017-07-13 19: 18: 22
    Tagged date : UTC 2017-07-13 19: 18: 22
    gsst : 0
    gstd : 1028504
    Video
    ID : 1
    Format : AVC
    Format/Info : Advanced Video Codec
    Format profile : Main@L3.1
    Format settings, CABAC : Yes
    Format settings, ReFrames : 3 frames
    Codec ID : avc1
    Codec ID/Info : Advanced Video Coding
    Duration : 17 min 8 s
    Bit rate : 1 419 kb/s
    Width : 1 280 pixels
    Height : 720 pixels
    Display aspect ratio : 16: 9
    Frame rate mode : Constant
    Frame rate : 30.000 FPS
    Color space : YUV
    Chroma subsampling : 4: 2: 0
    Bit depth : 8 bits
    Scan type : Progressive
    Bits/(Pixel*Frame) : 0.051
    Stream size : 174 MiB (92%)
    Title : ISO Media file produced by Google Inc.
    Encoded date : UTC 2017-07-13 19: 18: 22
    Tagged date : UTC 2017-07-13 19: 18: 22
    Color range : Limited
    Color primaries : BT.709
    Transfer characteristics : BT.709
    Matrix coefficients : BT.709
    Audio
    ID : 2
    Format : AAC
    Format/Info : Advanced Audio Codec
    Format profile : LC
    Codec ID : 40
    Duration : 17 min 8 s
    Bit rate mode : Variable
    Bit rate : 126 kb/s
    Channel(s) : 2 channels
    Channel positions : Front: L R
    Sampling rate : 44.1 kHz
    Frame rate : 43.066 FPS (1024 spf)
    Compression mode : Lossy
    Stream size : 15.4 MiB (8%)
    Title : ISO Media file produced by Google Inc.
    Encoded date : UTC 2017-07-13 19: 18: 22
    Tagged date : UTC 2017-07-13 19: 18: 22
    General
    Complete name : E: Булыгина - Трейдинг на 100% результат 2017Трейдинг на 100% результат - как торговать и зарабатывать на Российском фондовом рынке..mp4
    Format : MPEG-4
    Format profile : Base Media/Version 2
    Codec ID : mp42 (isom/mp42)
    File size : 277 MiB
    Duration : 1 h 36 min
    Overall bit rate mode : Variable
    Overall bit rate : 403 kb/s
    Encoded date : UTC 2017-04-01 05: 06: 34
    Tagged date : UTC 2017-04-01 05: 06: 34
    gsst : 0
    gstd : 5773525
    Video
    ID : 1
    Format : AVC
    Format/Info : Advanced Video Codec
    Format profile : Main@L3.1
    Format settings, CABAC : Yes
    Format settings, ReFrames : 3 frames
    Codec ID : avc1
    Codec ID/Info : Advanced Video Coding
    Duration : 1 h 36 min
    Bit rate : 274 kb/s
    Width : 1 280 pixels
    Height : 720 pixels
    Display aspect ratio : 16: 9
    Frame rate mode : Constant
    Frame rate : 30.000 FPS
    Color space : YUV
    Chroma subsampling : 4: 2: 0
    Bit depth : 8 bits
    Scan type : Progressive
    Bits/(Pixel*Frame) : 0.010
    Stream size : 188 MiB (68%)
    Title : ISO Media file produced by Google Inc.
    Encoded date : UTC 2017-04-01 05: 06: 34
    Tagged date : UTC 2017-04-01 05: 06: 34
    Color range : Limited
    Color primaries : BT.709
    Transfer characteristics : BT.709
    Matrix coefficients : BT.709
    Audio
    ID : 2
    Format : AAC
    Format/Info : Advanced Audio Codec
    Format profile : LC
    Codec ID : 40
    Duration : 1 h 36 min
    Bit rate mode : Variable
    Bit rate : 126 kb/s
    Channel(s) : 2 channels
    Channel positions : Front: L R
    Sampling rate : 44.1 kHz
    Frame rate : 43.066 FPS (1024 spf)
    Compression mode : Lossy
    Stream size : 86.4 MiB (31%)
    Title : ISO Media file produced by Google Inc.
    Encoded date : UTC 2017-04-01 05: 06: 34
    Tagged date : UTC 2017-04-01 05: 06: 34
    General
    Complete name : E: Булыгина - Трейдинг на 100% результат 2017Трейдинг на 100% результат 1.mp4
    Format : MPEG-4
    Format profile : Base Media/Version 2
    Codec ID : mp42 (isom/mp42)
    File size : 42.0 MiB
    Duration : 22 min 49 s
    Overall bit rate mode : Variable
    Overall bit rate : 257 kb/s
    Encoded date : UTC 2017-06-07 11: 48: 19
    Tagged date : UTC 2017-06-07 11: 48: 19
    gsst : 0
    gstd : 1369141
    Video
    ID : 1
    Format : AVC
    Format/Info : Advanced Video Codec
    Format profile : Main@L3.1
    Format settings, CABAC : Yes
    Format settings, ReFrames : 3 frames
    Codec ID : avc1
    Codec ID/Info : Advanced Video Coding
    Duration : 22 min 49 s
    Bit rate : 160 kb/s
    Width : 1 280 pixels
    Height : 720 pixels
    Display aspect ratio : 16: 9
    Frame rate mode : Constant
    Frame rate : 25.000 FPS
    Color space : YUV
    Chroma subsampling : 4: 2: 0
    Bit depth : 8 bits
    Scan type : Progressive
    Bits/(Pixel*Frame) : 0.007
    Stream size : 26.2 MiB (62%)
    Title : ISO Media file produced by Google Inc.
    Encoded date : UTC 2017-06-07 11: 48: 19
    Tagged date : UTC 2017-06-07 11: 48: 19
    Color range : Limited
    Color primaries : BT.709
    Transfer characteristics : BT.709
    Matrix coefficients : BT.709
    Audio
    ID : 2
    Format : AAC
    Format/Info : Advanced Audio Codec
    Format profile : LC
    Codec ID : 40
    Duration : 22 min 49 s
    Bit rate mode : Variable
    Bit rate : 93.6 kb/s
    Channel(s) : 1 channel
    Channel positions : Front: C
    Sampling rate : 44.1 kHz
    Frame rate : 43.066 FPS (1024 spf)
    Compression mode : Lossy
    Stream size : 15.3 MiB (36%)
    Title : ISO Media file produced by Google Inc.
    Encoded date : UTC 2017-06-07 11: 48: 19
    Tagged date : UTC 2017-06-07 11: 48: 19
    General
    Complete name : E: Булыгина - Трейдинг на 100% результат 2017Трейдинг на 100% результат 10.mp4
    Format : MPEG-4
    Format profile : Base Media/Version 2
    Codec ID : mp42 (isom/mp42)
    File size : 65.8 MiB
    Duration : 25 min 23 s
    Overall bit rate mode : Variable
    Overall bit rate : 362 kb/s
    Encoded date : UTC 2017-06-19 09: 04: 46
    Tagged date : UTC 2017-06-19 09: 04: 46
    gsst : 0
    gstd : 1523716
    Video
    ID : 1
    Format : AVC
    Format/Info : Advanced Video Codec
    Format profile : Main@L3.1
    Format settings, CABAC : Yes
    Format settings, ReFrames : 3 frames
    Codec ID : avc1
    Codec ID/Info : Advanced Video Coding
    Duration : 25 min 23 s
    Bit rate : 233 kb/s
    Width : 1 280 pixels
    Height : 720 pixels
    Display aspect ratio : 16: 9
    Frame rate mode : Constant
    Frame rate : 30.000 FPS
    Color space : YUV
    Chroma subsampling : 4: 2: 0
    Bit depth : 8 bits
    Scan type : Progressive
    Bits/(Pixel*Frame) : 0.008
    Stream size : 42.3 MiB (64%)
    Title : ISO Media file produced by Google Inc.
    Encoded date : UTC 2017-06-19 09: 04: 46
    Tagged date : UTC 2017-06-19 09: 04: 46
    Color range : Limited
    Color primaries : BT.709
    Transfer characteristics : BT.709
    Matrix coefficients : BT.709
    Audio
    ID : 2
    Format : AAC
    Format/Info : Advanced Audio Codec
    Format profile : LC
    Codec ID : 40
    Duration : 25 min 23 s
    Bit rate mode : Variable
    Bit rate : 126 kb/s
    Channel(s) : 2 channels
    Channel positions : Front: L R
    Sampling rate : 44.1 kHz
    Frame rate : 43.066 FPS (1024 spf)
    Compression mode : Lossy
    Stream size : 22.8 MiB (35%)
    Title : ISO Media file produced by Google Inc.
    Encoded date : UTC 2017-06-19 09: 04: 46
    Tagged date : UTC 2017-06-19 09: 04: 46
    General
    Complete name : E: Булыгина - Трейдинг на 100% результат 2017Трейдинг на 100% результат 11.mp4
    Format : MPEG-4
    Format profile : Base Media/Version 2
    Codec ID : mp42 (isom/mp42)
    File size : 31.3 MiB
    Duration : 17 min 15 s
    Overall bit rate mode : Variable
    Overall bit rate : 253 kb/s
    Encoded date : UTC 2017-05-31 14: 02: 06
    Tagged date : UTC 2017-05-31 14: 02: 06
    gsst : 0
    gstd : 1035517
    Video
    ID : 1
    Format : AVC
    Format/Info : Advanced Video Codec
    Format profile : Main@L3.1
    Format settings, CABAC : Yes
    Format settings, ReFrames : 3 frames
    Codec ID : avc1
    Codec ID/Info : Advanced Video Coding
    Duration : 17 min 15 s
    Bit rate : 124 kb/s
    Width : 1 280 pixels
    Height : 720 pixels
    Display aspect ratio : 16: 9
    Frame rate mode : Constant
    Frame rate : 30.000 FPS
    Color space : YUV
    Chroma subsampling : 4: 2: 0
    Bit depth : 8 bits
    Scan type : Progressive
    Bits/(Pixel*Frame) : 0.004
    Stream size : 15.3 MiB (49%)
    Title : ISO Media file produced by Google Inc.
    Encoded date : UTC 2017-05-31 14: 02: 06
    Tagged date : UTC 2017-05-31 14: 02: 06
    Color range : Limited
    Color primaries : BT.709
    Transfer characteristics : BT.709
    Matrix coefficients : BT.709
    Audio
    ID : 2
    Format : AAC
    Format/Info : Advanced Audio Codec
    Format profile : LC
    Codec ID : 40
    Duration : 17 min 15 s
    Source duration : 17 min 15 s
    Bit rate mode : Variable
    Bit rate : 126 kb/s
    Channel(s) : 2 channels
    Channel positions : Front: L R
    Sampling rate : 44.1 kHz
    Frame rate : 43.066 FPS (1024 spf)
    Compression mode : Lossy
    Stream size : 15.5 MiB (50%)
    Source stream size : 15.5 MiB (50%)
    Title : ISO Media file produced by Google Inc.
    Encoded date : UTC 2017-05-31 14: 02: 06
    Tagged date : UTC 2017-05-31 14: 02: 06
    General
    Complete name : E: Булыгина - Трейдинг на 100% результат 2017Трейдинг на 100% результат 12.mp4
    Format : MPEG-4
    Format profile : Base Media/Version 2
    Codec ID : mp42 (isom/mp42)
    File size : 613 MiB
    Duration : 2 h 6 min
    Overall bit rate mode : Variable
    Overall bit rate : 678 kb/s
    Encoded date : UTC 2016-04-23 00: 29: 28
    Tagged date : UTC 2016-04-23 00: 29: 28
    gsst : 0
    gstd : 7575253
    Video
    ID : 1
    Format : AVC
    Format/Info : Advanced Video Codec
    Format profile : High@L3.1
    Format settings, CABAC : Yes
    Format settings, ReFrames : 1 frame
    Format settings, GOP : M=1, N=60
    Codec ID : avc1
    Codec ID/Info : Advanced Video Coding
    Duration : 2 h 6 min
    Bit rate : 532 kb/s
    Maximum bit rate : 5 213 kb/s
    Width : 1 280 pixels
    Height : 720 pixels
    Display aspect ratio : 16: 9
    Frame rate mode : Constant
    Frame rate : 15.000 FPS
    Color space : YUV
    Chroma subsampling : 4: 2: 0
    Bit depth : 8 bits
    Scan type : Progressive
    Bits/(Pixel*Frame) : 0.039
    Stream size : 481 MiB (78%)
    Tagged date : UTC 2016-04-23 00: 30: 10
    Color range : Limited
    Color primaries : BT.709
    Transfer characteristics : BT.709
    Matrix coefficients : BT.709
    Audio
    ID : 2
    Format : AAC
    Format/Info : Advanced Audio Codec
    Format profile : LC
    Codec ID : 40
    Duration : 2 h 6 min
    Bit rate mode : Variable
    Bit rate : 144 kb/s
    Maximum bit rate : 150 kb/s
    Channel(s) : 1 channel
    Channel positions : Front: C
    Sampling rate : 44.1 kHz
    Frame rate : 43.066 FPS (1024 spf)
    Compression mode : Lossy
    Stream size : 130 MiB (21%)
    Title : IsoMedia File Produced by Google, 5-11-2011
    Encoded date : UTC 2016-04-23 00: 29: 51
    Tagged date : UTC 2016-04-23 00: 30: 10
    General
    Complete name : E: Булыгина - Трейдинг на 100% результат 2017Трейдинг на 100% результат 13.mp4
    Format : MPEG-4
    Format profile : Base Media/Version 2
    Codec ID : mp42 (isom/mp42)
    File size : 747 MiB
    Duration : 1 h 30 min
    Overall bit rate mode : Variable
    Overall bit rate : 1 157 kb/s
    Encoded date : UTC 2016-04-23 00: 37: 26
    Tagged date : UTC 2016-04-23 00: 37: 26
    gsst : 0
    gstd : 5413986
    Video
    ID : 1
    Format : AVC
    Format/Info : Advanced Video Codec
    Format profile : High@L3.1
    Format settings, CABAC : Yes
    Format settings, ReFrames : 1 frame
    Format settings, GOP : M=1, N=60
    Codec ID : avc1
    Codec ID/Info : Advanced Video Coding
    Duration : 1 h 30 min
    Bit rate : 1 011 kb/s
    Maximum bit rate : 3 175 kb/s
    Width : 1 280 pixels
    Height : 720 pixels
    Display aspect ratio : 16: 9
    Frame rate mode : Constant
    Frame rate : 15.000 FPS
    Color space : YUV
    Chroma subsampling : 4: 2: 0
    Bit depth : 8 bits
    Scan type : Progressive
    Bits/(Pixel*Frame) : 0.073
    Stream size : 653 MiB (87%)
    Tagged date : UTC 2016-04-23 00: 39: 04
    Color range : Limited
    Color primaries : BT.709
    Transfer characteristics : BT.709
    Matrix coefficients : BT.709
    Audio
    ID : 2
    Format : AAC
    Format/Info : Advanced Audio Codec
    Format profile : LC
    Codec ID : 40
    Duration : 1 h 30 min
    Bit rate mode : Variable
    Bit rate : 144 kb/s
    Maximum bit rate : 151 kb/s
    Channel(s) : 1 channel
    Channel positions : Front: C
    Sampling rate : 44.1 kHz
    Frame rate : 43.066 FPS (1024 spf)
    Compression mode : Lossy
    Stream size : 92.9 MiB (12%)
    Title : IsoMedia File Produced by Google, 5-11-2011
    Encoded date : UTC 2016-04-23 00: 38: 16
    Tagged date : UTC 2016-04-23 00: 39: 04
    General
    Complete name : E: Булыгина - Трейдинг на 100% результат 2017Трейдинг на 100% результат 2.mp4
    Format : MPEG-4
    Format profile : Base Media/Version 2
    Codec ID : mp42 (isom/mp42)
    File size : 126 MiB
    Duration : 24 min 6 s
    Overall bit rate mode : Variable
    Overall bit rate : 732 kb/s
    Encoded date : UTC 2017-08-09 12: 09: 42
    Tagged date : UTC 2017-08-09 12: 09: 42
    gsst : 0
    gstd : 1446138
    Video
    ID : 1
    Format : AVC
    Format/Info : Advanced Video Codec
    Format profile : Main@L3.1
    Format settings, CABAC : Yes
    Format settings, ReFrames : 3 frames
    Codec ID : avc1
    Codec ID/Info : Advanced Video Coding
    Duration : 24 min 6 s
    Bit rate : 635 kb/s
    Width : 1 280 pixels
    Height : 720 pixels
    Display aspect ratio : 16: 9
    Frame rate mode : Constant
    Frame rate : 25.000 FPS
    Color space : YUV
    Chroma subsampling : 4: 2: 0
    Bit depth : 8 bits
    Scan type : Progressive
    Bits/(Pixel*Frame) : 0.028
    Stream size : 109 MiB (87%)
    Title : ISO Media file produced by Google Inc.
    Encoded date : UTC 2017-08-09 12: 09: 42
    Tagged date : UTC 2017-08-09 12: 09: 42
    Color range : Limited
    Color primaries : BT.709
    Transfer characteristics : BT.709
    Matrix coefficients : BT.709
    Audio
    ID : 2
    Format : AAC
    Format/Info : Advanced Audio Codec
    Format profile : LC
    Codec ID : 40
    Duration : 24 min 6 s
    Source duration : 24 min 6 s
    Bit rate mode : Variable
    Bit rate : 93.6 kb/s
    Channel(s) : 1 channel
    Channel positions : Front: C
    Sampling rate : 44.1 kHz
    Frame rate : 43.066 FPS (1024 spf)
    Compression mode : Lossy
    Stream size : 16.1 MiB (13%)
    Source stream size : 16.1 MiB (13%)
    Title : ISO Media file produced by Google Inc.
    Encoded date : UTC 2017-08-09 12: 09: 42
    Tagged date : UTC 2017-08-09 12: 09: 42
    General
    Complete name : E: Булыгина - Трейдинг на 100% результат 2017Трейдинг на 100% результат 3.mp4
    Format : MPEG-4
    Format profile : Base Media/Version 2
    Codec ID : mp42 (isom/mp42)
    File size : 84.3 MiB
    Duration : 30 min 51 s
    Overall bit rate mode : Variable
    Overall bit rate : 382 kb/s
    Encoded date : UTC 2017-07-12 11: 19: 30
    Tagged date : UTC 2017-07-12 11: 19: 30
    gsst : 0
    gstd : 1851744
    Video
    ID : 1
    Format : AVC
    Format/Info : Advanced Video Codec
    Format profile : Main@L3.1
    Format settings, CABAC : Yes
    Format settings, ReFrames : 3 frames
    Codec ID : avc1
    Codec ID/Info : Advanced Video Coding
    Duration : 30 min 51 s
    Bit rate : 285 kb/s
    Width : 1 280 pixels
    Height : 720 pixels
    Display aspect ratio : 16: 9
    Frame rate mode : Constant
    Frame rate : 25.000 FPS
    Color space : YUV
    Chroma subsampling : 4: 2: 0
    Bit depth : 8 bits
    Scan type : Progressive
    Bits/(Pixel*Frame) : 0.012
    Stream size : 63.0 MiB (75%)
    Title : ISO Media file produced by Google Inc.
    Encoded date : UTC 2017-07-12 11: 19: 30
    Tagged date : UTC 2017-07-12 11: 19: 30
    Color range : Limited
    Color primaries : BT.709
    Transfer characteristics : BT.709
    Matrix coefficients : BT.709
    Audio
    ID : 2
    Format : AAC
    Format/Info : Advanced Audio Codec
    Format profile : LC
    Codec ID : 40
    Duration : 30 min 51 s
    Bit rate mode : Variable
    Bit rate : 93.6 kb/s
    Channel(s) : 1 channel
    Channel positions : Front: C
    Sampling rate : 44.1 kHz
    Frame rate : 43.066 FPS (1024 spf)
    Compression mode : Lossy
    Stream size : 20.7 MiB (24%)
    Title : ISO Media file produced by Google Inc.
    Encoded date : UTC 2017-07-12 11: 19: 30
    Tagged date : UTC 2017-07-12 11: 19: 30
    General
    Complete name : E: Булыгина - Трейдинг на 100% результат 2017Трейдинг на 100% результат 4.mp4
    Format : MPEG-4
    Format profile : Base Media/Version 2
    Codec ID : mp42 (isom/mp42)
    File size : 53.7 MiB
    Duration : 24 min 51 s
    Overall bit rate mode : Variable
    Overall bit rate : 302 kb/s
    Encoded date : UTC 2017-07-19 15: 18: 01
    Tagged date : UTC 2017-07-19 15: 18: 01
    gsst : 0
    gstd : 1491069
    Video
    ID : 1
    Format : AVC
    Format/Info : Advanced Video Codec
    Format profile : Main@L3.1
    Format settings, CABAC : Yes
    Format settings, ReFrames : 3 frames
    Codec ID : avc1
    Codec ID/Info : Advanced Video Coding
    Duration : 24 min 51 s
    Bit rate : 205 kb/s
    Width : 1 280 pixels
    Height : 720 pixels
    Display aspect ratio : 16: 9
    Frame rate mode : Constant
    Frame rate : 25.000 FPS
    Color space : YUV
    Chroma subsampling : 4: 2: 0
    Bit depth : 8 bits
    Scan type : Progressive
    Bits/(Pixel*Frame) : 0.009
    Stream size : 36.5 MiB (68%)
    Title : ISO Media file produced by Google Inc.
    Encoded date : UTC 2017-07-19 15: 18: 01
    Tagged date : UTC 2017-07-19 15: 18: 01
    Color range : Limited
    Color primaries : BT.709
    Transfer characteristics : BT.709
    Matrix coefficients : BT.709
    Audio
    ID : 2
    Format : AAC
    Format/Info : Advanced Audio Codec
    Format profile : LC
    Codec ID : 40
    Duration : 24 min 51 s
    Bit rate mode : Variable
    Bit rate : 93.6 kb/s
    Channel(s) : 1 channel
    Channel positions : Front: C
    Sampling rate : 44.1 kHz
    Frame rate : 43.066 FPS (1024 spf)
    Compression mode : Lossy
    Stream size : 16.6 MiB (31%)
    Title : ISO Media file produced by Google Inc.
    Encoded date : UTC 2017-07-19 15: 18: 01
    Tagged date : UTC 2017-07-19 15: 18: 01
    General
    Complete name : E: Булыгина - Трейдинг на 100% результат 2017Трейдинг на 100% результат 5.mp4
    Format : MPEG-4
    Format profile : Base Media/Version 2
    Codec ID : mp42 (isom/mp42)
    File size : 44.7 MiB
    Duration : 24 min 55 s
    Overall bit rate mode : Variable
    Overall bit rate : 250 kb/s
    Encoded date : UTC 2017-06-28 11: 47: 07
    Tagged date : UTC 2017-06-28 11: 47: 07
    gsst : 0
    gstd : 1495783
    Video
    ID : 1
    Format : AVC
    Format/Info : Advanced Video Codec
    Format profile : Main@L3.1
    Format settings, CABAC : Yes
    Format settings, ReFrames : 3 frames
    Codec ID : avc1
    Codec ID/Info : Advanced Video Coding
    Duration : 24 min 55 s
    Bit rate : 153 kb/s
    Width : 1 280 pixels
    Height : 720 pixels
    Display aspect ratio : 16: 9
    Frame rate mode : Constant
    Frame rate : 25.000 FPS
    Color space : YUV
    Chroma subsampling : 4: 2: 0
    Bit depth : 8 bits
    Scan type : Progressive
    Bits/(Pixel*Frame) : 0.007
    Stream size : 27.4 MiB (61%)
    Title : ISO Media file produced by Google Inc.
    Encoded date : UTC 2017-06-28 11: 47: 07
    Tagged date : UTC 2017-06-28 11: 47: 07
    Color range : Limited
    Color primaries : BT.709
    Transfer characteristics : BT.709
    Matrix coefficients : BT.709
    Audio
    ID : 2
    Format : AAC
    Format/Info : Advanced Audio Codec
    Format profile : LC
    Codec ID : 40
    Duration : 24 min 55 s
    Bit rate mode : Variable
    Bit rate : 93.6 kb/s
    Channel(s) : 1 channel
    Channel positions : Front: C
    Sampling rate : 44.1 kHz
    Frame rate : 43.066 FPS (1024 spf)
    Compression mode : Lossy
    Stream size : 16.7 MiB (37%)
    Title : ISO Media file produced by Google Inc.
    Encoded date : UTC 2017-06-28 11: 47: 07
    Tagged date : UTC 2017-06-28 11: 47: 07
    General
    Complete name : E: Булыгина - Трейдинг на 100% результат 2017Трейдинг на 100% результат 6.mp4
    Format : MPEG-4
    Format profile : Base Media/Version 2
    Codec ID : mp42 (isom/mp42)
    File size : 31.2 MiB
    Duration : 16 min 4 s
    Overall bit rate mode : Variable
    Overall bit rate : 271 kb/s
    Encoded date : UTC 2017-06-06 00: 46: 58
    Tagged date : UTC 2017-06-06 00: 46: 58
    gsst : 0
    gstd : 964998
    Video
    ID : 1
    Format : AVC
    Format/Info : Advanced Video Codec
    Format profile : Main@L3.1
    Format settings, CABAC : Yes
    Format settings, ReFrames : 3 frames
    Codec ID : avc1
    Codec ID/Info : Advanced Video Coding
    Duration : 16 min 4 s
    Bit rate : 142 kb/s
    Width : 1 280 pixels
    Height : 720 pixels
    Display aspect ratio : 16: 9
    Frame rate mode : Constant
    Frame rate : 30.000 FPS
    Color space : YUV
    Chroma subsampling : 4: 2: 0
    Bit depth : 8 bits
    Scan type : Progressive
    Bits/(Pixel*Frame) : 0.005
    Stream size : 16.3 MiB (52%)
    Title : ISO Media file produced by Google Inc.
    Encoded date : UTC 2017-06-06 00: 46: 58
    Tagged date : UTC 2017-06-06 00: 46: 58
    Color range : Limited
    Color primaries : BT.709
    Transfer characteristics : BT.709
    Matrix coefficients : BT.709
    Audio
    ID : 2
    Format : AAC
    Format/Info : Advanced Audio Codec
    Format profile : LC
    Codec ID : 40
    Duration : 16 min 4 s
    Bit rate mode : Variable
    Bit rate : 126 kb/s
    Channel(s) : 2 channels
    Channel positions : Front: L R
    Sampling rate : 44.1 kHz
    Frame rate : 43.066 FPS (1024 spf)
    Compression mode : Lossy
    Stream size : 14.4 MiB (46%)
    Title : ISO Media file produced by Google Inc.
    Encoded date : UTC 2017-06-06 00: 46: 58
    Tagged date : UTC 2017-06-06 00: 46: 58
    General
    Complete name : E: Булыгина - Трейдинг на 100% результат 2017Трейдинг на 100% результат 8.mp4
    Format : MPEG-4
    Format profile : Base Media/Version 2
    Codec ID : mp42 (isom/mp42)
    File size : 36.3 MiB
    Duration : 19 min 7 s
    Overall bit rate mode : Variable
    Overall bit rate : 265 kb/s
    Encoded date : UTC 2017-08-14 10: 07: 48
    Tagged date : UTC 2017-08-14 10: 07: 48
    gsst : 0
    gstd : 1147321
    Video
    ID : 1
    Format : AVC
    Format/Info : Advanced Video Codec
    Format profile : Main@L3.1
    Format settings, CABAC : Yes
    Format settings, ReFrames : 3 frames
    Codec ID : avc1
    Codec ID/Info : Advanced Video Coding
    Duration : 19 min 7 s
    Bit rate : 136 kb/s
    Width : 1 280 pixels
    Height : 720 pixels
    Display aspect ratio : 16: 9
    Frame rate mode : Constant
    Frame rate : 30.000 FPS
    Color space : YUV
    Chroma subsampling : 4: 2: 0
    Bit depth : 8 bits
    Scan type : Progressive
    Bits/(Pixel*Frame) : 0.005
    Stream size : 18.6 MiB (51%)
    Title : ISO Media file produced by Google Inc.
    Encoded date : UTC 2017-08-14 10: 07: 48
    Tagged date : UTC 2017-08-14 10: 07: 48
    Color range : Limited
    Color primaries : BT.709
    Transfer characteristics : BT.709
    Matrix coefficients : BT.709
    Audio
    ID : 2
    Format : AAC
    Format/Info : Advanced Audio Codec
    Format profile : LC
    Codec ID : 40
    Duration : 19 min 7 s
    Bit rate mode : Variable
    Bit rate : 126 kb/s
    Channel(s) : 2 channels
    Channel positions : Front: L R
    Sampling rate : 44.1 kHz
    Frame rate : 43.066 FPS (1024 spf)
    Compression mode : Lossy
    Stream size : 17.2 MiB (47%)
    Title : ISO Media file produced by Google Inc.
    Encoded date : UTC 2017-08-14 10: 07: 48
    Tagged date : UTC 2017-08-14 10: 07: 48
    General
    Complete name : E: Булыгина - Трейдинг на 100% результат 2017Трейдинг на 100% результат 9.mp4
    Format : MPEG-4
    Format profile : Base Media/Version 2
    Codec ID : mp42 (isom/mp42)
    File size : 45.5 MiB
    Duration : 23 min 24 s
    Overall bit rate mode : Variable
    Overall bit rate : 272 kb/s
    Encoded date : UTC 2017-07-17 09: 04: 17
    Tagged date : UTC 2017-07-17 09: 04: 17
    gsst : 0
    gstd : 1404157
    Video
    ID : 1
    Format : AVC
    Format/Info : Advanced Video Codec
    Format profile : Main@L3.1
    Format settings, CABAC : Yes
    Format settings, ReFrames : 3 frames
    Codec ID : avc1
    Codec ID/Info : Advanced Video Coding
    Duration : 23 min 24 s
    Bit rate : 143 kb/s
    Width : 1 280 pixels
    Height : 720 pixels
    Display aspect ratio : 16: 9
    Frame rate mode : Constant
    Frame rate : 30.000 FPS
    Color space : YUV
    Chroma subsampling : 4: 2: 0
    Bit depth : 8 bits
    Scan type : Progressive
    Bits/(Pixel*Frame) : 0.005
    Stream size : 23.9 MiB (52%)
    Title : ISO Media file produced by Google Inc.
    Encoded date : UTC 2017-07-17 09: 04: 17
    Tagged date : UTC 2017-07-17 09: 04: 17
    Color range : Limited
    Color primaries : BT.709
    Transfer characteristics : BT.709
    Matrix coefficients : BT.709
    Audio
    ID : 2
    Format : AAC
    Format/Info : Advanced Audio Codec
    Format profile : LC
    Codec ID : 40
    Duration : 23 min 24 s
    Bit rate mode : Variable
    Bit rate : 126 kb/s
    Channel(s) : 2 channels
    Channel positions : Front: L R
    Sampling rate : 44.1 kHz
    Frame rate : 43.066 FPS (1024 spf)
    Compression mode : Lossy
    Stream size : 21.0 MiB (46%)
    Title : ISO Media file produced by Google Inc.
    Encoded date : UTC 2017-07-17 09: 04: 17
    Tagged date : UTC 2017-07-17 09: 04: 17
    General
    Complete name : E: Булыгина - Трейдинг на 100% результат 2017Трейдинг на 100% результат Как проходит Торговый план 06.06.2017.mp4
    Format : MPEG-4
    Format profile : Base Media/Version 2
    Codec ID : mp42 (isom/mp42)
    File size : 28.9 MiB
    Duration : 18 min 33 s
    Overall bit rate mode : Variable
    Overall bit rate : 218 kb/s
    Encoded date : UTC 2017-06-06 12: 02: 27
    Tagged date : UTC 2017-06-06 12: 02: 27
    gsst : 0
    gstd : 1113884
    Video
    ID : 1
    Format : AVC
    Format/Info : Advanced Video Codec
    Format profile : Main@L3.1
    Format settings, CABAC : Yes
    Format settings, ReFrames : 3 frames
    Codec ID : avc1
    Codec ID/Info : Advanced Video Coding
    Duration : 18 min 33 s
    Bit rate : 88.4 kb/s
    Width : 1 280 pixels
    Height : 720 pixels
    Display aspect ratio : 16: 9
    Frame rate mode : Constant
    Frame rate : 30.000 FPS
    Color space : YUV
    Chroma subsampling : 4: 2: 0
    Bit depth : 8 bits
    Scan type : Progressive
    Bits/(Pixel*Frame) : 0.003
    Stream size : 11.7 MiB (41%)
    Title : ISO Media file produced by Google Inc.
    Encoded date : UTC 2017-06-06 12: 02: 27
    Tagged date : UTC 2017-06-06 12: 02: 27
    Color range : Limited
    Color primaries : BT.709
    Transfer characteristics : BT.709
    Matrix coefficients : BT.709
    Audio
    ID : 2
    Format : AAC
    Format/Info : Advanced Audio Codec
    Format profile : LC
    Codec ID : 40
    Duration : 18 min 33 s
    Source duration : 18 min 33 s
    Bit rate mode : Variable
    Bit rate : 126 kb/s
    Channel(s) : 2 channels
    Channel positions : Front: L R
    Sampling rate : 44.1 kHz
    Frame rate : 43.066 FPS (1024 spf)
    Compression mode : Lossy
    Stream size : 16.7 MiB (58%)
    Source stream size : 16.7 MiB (58%)
    Title : ISO Media file produced by Google Inc.
    Encoded date : UTC 2017-06-06 12: 02: 27
    Tagged date : UTC 2017-06-06 12: 02: 27
    General
    Complete name : E: Булыгина - Трейдинг на 100% результат 2017Трейдинг на 100% результат Как эффективно планировать торговый день\'.mp4
    Format : MPEG-4
    Format profile : Base Media/Version 2
    Codec ID : mp42 (isom/mp42)
    File size : 292 MiB
    Duration : 1 h 30 min
    Overall bit rate mode : Variable
    Overall bit rate : 449 kb/s
    Encoded date : UTC 2017-01-22 11: 02: 12
    Tagged date : UTC 2017-01-22 11: 02: 12
    gsst : 0
    gstd : 5453067
    Video
    ID : 1
    Format : AVC
    Format/Info : Advanced Video Codec
    Format profile : Main@L3.1
    Format settings, CABAC : Yes
    Format settings, ReFrames : 3 frames
    Codec ID : avc1
    Codec ID/Info : Advanced Video Coding
    Duration : 1 h 30 min
    Bit rate : 352 kb/s
    Width : 1 280 pixels
    Height : 720 pixels
    Display aspect ratio : 16: 9
    Frame rate mode : Constant
    Frame rate : 25.000 FPS
    Color space : YUV
    Chroma subsampling : 4: 2: 0
    Bit depth : 8 bits
    Scan type : Progressive
    Bits/(Pixel*Frame) : 0.015
    Stream size : 229 MiB (78%)
    Title : ISO Media file produced by Google Inc.
    Encoded date : UTC 2017-01-22 11: 02: 12
    Tagged date : UTC 2017-01-22 11: 02: 12
    Color range : Limited
    Color primaries : BT.709
    Transfer characteristics : BT.709
    Matrix coefficients : BT.709
    Audio
    ID : 2
    Format : AAC
    Format/Info : Advanced Audio Codec
    Format profile : LC
    Codec ID : 40
    Duration : 1 h 30 min
    Source duration : 1 h 30 min
    Bit rate mode : Variable
    Bit rate : 93.6 kb/s
    Channel(s) : 1 channel
    Channel positions : Front: C
    Sampling rate : 44.1 kHz
    Frame rate : 43.066 FPS (1024 spf)
    Compression mode : Lossy
    Stream size : 60.8 MiB (21%)
    Source stream size : 60.8 MiB (21%)
    Title : ISO Media file produced by Google Inc.
    Encoded date : UTC 2017-01-22 11: 02: 12
    Tagged date : UTC 2017-01-22 11: 02: 12
    General
    Complete name : E: Булыгина - Трейдинг на 100% результат 2017Трейдинг на 100% результат эмоции.mp4
    Format : MPEG-4
    Format profile : Base Media/Version 2
    Codec ID : mp42 (isom/mp42)
    File size : 164 MiB
    Duration : 1 h 6 min
    Overall bit rate mode : Variable
    Overall bit rate : 342 kb/s
    Encoded date : UTC 2017-04-01 04: 18: 28
    Tagged date : UTC 2017-04-01 04: 18: 28
    gsst : 0
    gstd : 4011386
    Video
    ID : 1
    Format : AVC
    Format/Info : Advanced Video Codec
    Format profile : Main@L3.1
    Format settings, CABAC : Yes
    Format settings, ReFrames : 3 frames
    Codec ID : avc1
    Codec ID/Info : Advanced Video Coding
    Duration : 1 h 6 min
    Bit rate : 213 kb/s
    Width : 1 280 pixels
    Height : 720 pixels
    Display aspect ratio : 16: 9
    Frame rate mode : Constant
    Frame rate : 30.000 FPS
    Color space : YUV
    Chroma subsampling : 4: 2: 0
    Bit depth : 8 bits
    Scan type : Progressive
    Bits/(Pixel*Frame) : 0.008
    Stream size : 102 MiB (62%)
    Title : ISO Media file produced by Google Inc.
    Encoded date : UTC 2017-04-01 04: 18: 28
    Tagged date : UTC 2017-04-01 04: 18: 28
    Color range : Limited
    Color primaries : BT.709
    Transfer characteristics : BT.709
    Matrix coefficients : BT.709
    Audio
    ID : 2
    Format : AAC
    Format/Info : Advanced Audio Codec
    Format profile : LC
    Codec ID : 40
    Duration : 1 h 6 min
    Bit rate mode : Variable
    Bit rate : 126 kb/s
    Channel(s) : 2 channels
    Channel positions : Front: L R
    Sampling rate : 44.1 kHz
    Frame rate : 43.066 FPS (1024 spf)
    Compression mode : Lossy
    Stream size : 60.1 MiB (37%)
    Title : ISO Media file produced by Google Inc.
    Encoded date : UTC 2017-04-01 04: 18: 28
    Tagged date : UTC 2017-04-01 04: 18: 28
    General
    Complete name : E: Булыгина - Трейдинг на 100% результат 2017Трейдинг на 100% результат.mp4
    Format : MPEG-4
    Format profile : Base Media/Version 2
    Codec ID : mp42 (isom/mp42)
    File size : 47.1 MiB
    Duration : 23 min 59 s
    Overall bit rate mode : Variable
    Overall bit rate : 275 kb/s
    Encoded date : UTC 2017-08-22 23: 53: 33
    Tagged date : UTC 2017-08-22 23: 53: 33
    gsst : 0
    gstd : 1439335
    Video
    ID : 1
    Format : AVC
    Format/Info : Advanced Video Codec
    Format profile : Main@L3.1
    Format settings, CABAC : Yes
    Format settings, ReFrames : 3 frames
    Codec ID : avc1
    Codec ID/Info : Advanced Video Coding
    Duration : 23 min 59 s
    Bit rate : 145 kb/s
    Width : 1 280 pixels
    Height : 720 pixels
    Display aspect ratio : 16: 9
    Frame rate mode : Constant
    Frame rate : 30.000 FPS
    Color space : YUV
    Chroma subsampling : 4: 2: 0
    Bit depth : 8 bits
    Scan type : Progressive
    Bits/(Pixel*Frame) : 0.005
    Stream size : 24.9 MiB (53%)
    Title : ISO Media file produced by Google Inc.
    Encoded date : UTC 2017-08-22 23: 53: 33
    Tagged date : UTC 2017-08-22 23: 53: 33
    Color range : Limited
    Color primaries : BT.709
    Transfer characteristics : BT.709
    Matrix coefficients : BT.709
    Audio
    ID : 2
    Format : AAC
    Format/Info : Advanced Audio Codec
    Format profile : LC
    Codec ID : 40
    Duration : 23 min 59 s
    Bit rate mode : Variable
    Bit rate : 126 kb/s
    Channel(s) : 2 channels
    Channel positions : Front: L R
    Sampling rate : 44.1 kHz
    Frame rate : 43.066 FPS (1024 spf)
    Compression mode : Lossy
    Stream size : 21.5 MiB (46%)
    Title : ISO Media file produced by Google Inc.
    Encoded date : UTC 2017-08-22 23: 53: 33
    Tagged date : UTC 2017-08-22 23: 53: 33
    Для того, чтобы начать стабильно зарабатывать на бирже, необходимо заложить прочный фундамент.
    Ежедневно множество трейдеров приходят на биржу в надежде заработать, ухватиться за тренд удачи.
    Каждый день количество трейдеров желающих совершать прибыльные сделки постоянно увеличивается. И так же растет количество тех, кто потерпел неудачу и разочаровался в себе.
    Но! Есть трейдеры, уже который год, стабильно и ГЛАВНОЕ прибыльно торгующие на бирже.
    В чем их секрет? Что они знают и делают такого, чего не умеют остальные 95% трейдеров.
    Вы получите только самую актуальную и эксклюзивную на сегодняшний день информацию. Все то, что было собрано, структурировано и проверено на протяжении 6 лет Ириной Булыгиной. Вам лишь остается принять, освоить и применить полученные знания.
    Наши ключевые преимущества:
    Освобождаем от иллюзий
    Раскрываем глаза и показываем реалии современного трейдинга на Московской бирже.
    Мы всегда превосходим ожидания наших клиентов! Помогаем им начать зарабатывать на рынке.
    Понимание торговли на бирже
    После прохождения обучения, Вы сможете успешно торговать фьючерсами и акциями на Московской фондофой бирже. Наши торговые правила и алгоритмы торговли, подходят для заработка на любом инструменте.
    Практический опыт
    Ирина Булыгина обучает только тому, что сама постоянно применяет во внутридневной торговле. Самое интересное в это истории, что об этом Шварценеггер ничего не знал. Эффективность и положительный результат – основные критерии ее работы с Вами.
    Скриншоты:


    Время раздачи: Пн-Пт с 10: 00 до 16: 00 (до появления первых 3-5 скачавших)

    Ирина Булыгина | Трейдинг на 100% результат (2017) PCRec [H.264/720p-LQ]
    загрузка...
    Рейтинг →
     (голосов: 1, оценка 3/5, голосовать можно 1 раз )

    Другие торренты по теме:

  • Ирина Булыгина | Секреты системного трейдинга (2016) HDRip [H.264 / 720p]


    • Комментарии (0):

      Информация

      Информация

        Посетители, находящиеся в группе Гости, не могут оставлять комментарии в данной новости.

        ↓ Меню




        ↓ Опрос

        Вы добавили сайт в закладки?
        Да
        Нет


        Top 10 за месяц (Книги)

        Андрей Сазонов | Мифы о нашем теле. Научный подход к примитивным вопросам (2017) [FB2]

        (скачиваний: 31)
        Элла Берту, Сьюзен Элдеркин | Книга как лекарство. Скорая литературная помощь от А до Я (2016) [FB2, EPUB]

        (скачиваний: 28)
        Оуэйн Сервис, Рори Галлахер | Начинай с малого. Научно доказанная система достижения больших целей (2018) [PDF, FB2, EPUB]

        (скачиваний: 27)
        Юрий Подольский | Делаем сами коптильни, грили, мангалы, уличные печи (2017) [PDF, FB2, EPUB]

        (скачиваний: 24)
        Григорий-Азиз | Фишки Ворда и Экселя [Word and Excel] (2017) PCRec [H.264]

        (скачиваний: 23)
        Дмитрий Петров, Алексей Кржижевский | Серия: Полиглот. Выучим иностранный язык за 16 часов [5 книг] (2014-2015) [PDF, DJVU]

        (скачиваний: 22)
        Наталья Корикова | Полезные и вкусные бутерброды. Алгоритм приготовления и рецепты (2017) [PDF]

        (скачиваний: 21)
        Юрий Морозов | Ремонт дачного дома своими руками. Полное руководство (2017) [PDF]

        (скачиваний: 21)
        Кевин Келли | Неизбежно. 12 технологических трендов, которые определяют наше будущее (2017) [PDF, EPUB, MOBI]

        (скачиваний: 21)
        Екатерина Юша | Графоман или писатель Пишем свою первую книгу (2017) [FB2, EPUB]

        (скачиваний: 20)