.
Авторизация | Регистрация
Хочешь лучшие торренты? Добавь свой email!
Добавить

Торрент скачать бесплатно

» » Александр Гусин | Архитектурные решения. Жилой дом (2017) [unpacked] торрент скачать бесплатно




    Александр Гусин | Архитектурные решения. Жилой дом (2017) [unpacked] торрент скачать бесплатно

    Опубликовал: Админ | Дата: 4-09-2017, 05:00 | Просмотров: 2

    Автор (режиссер): Александр Гусин
    Производство: Россия/Проект с нуля
    Жанр: Проектирование, архитектура
    Лечение: Требуется, но отсутствует
    Системные требования:
    Windows XP (Service Pack 2 и выше), Windows Vista (Service Pack 1 и выше), Windows 7 (Service Pack 1 и выше), Windows 8/8.1, Windows 10 (все версии)
    Процессор 1 ГГц или выше.
    Оперативная память 512 Мб и выше.
    300 Мб свободного пространства на жестком диске.
    Монитор VGA или лучший (разрешение 1024x768 или выше).
    Microsoft Internet Explorer 6.0 или выше.
    Мышь или иное совместимое устройство указания.
    Привод CD-ROM.


    Описание

    Выполни за 10 дней собственный рабочий проект жилого дома.
    Научим новой специализации и познакомим со всеми разделами настоящего рабочего проекта жилого дома всего за 14 уроков.
    Продолжительность: 02: 45: 22
    Качество видео: PCRec
    Видео: AVC/H.264, 1280х720, ~1283 Kbps
    Аудио: AAC, 2 ch, 192 Kbps

    Общее
    Полное имя : AR1_lesson_AR.mp4
    Формат : MPEG-4
    Профиль формата : Base Media
    Идентификатор кодека : isom (isom/iso2/avc1/mp41)
    Размер файла : 121 Мбайт
    Продолжительность : 11 м. 25 с.
    Общий поток : 1485 Кбит/сек
    Программа кодирования : Lavf57.40.101
    Видео
    Идентификатор : 1
    Формат : AVC
    Формат/Информация : Advanced Video Codec
    Профиль формата : Main@L3.1
    Параметр CABAC формата : Да
    Параметр ReFrames формата : 1 кадр
    Параметр GOP формата : M=1, N=25
    Идентификатор кодека : avc1
    Идентификатор кодека/Информация : Advanced Video Coding
    Продолжительность : 11 м. 25 с.
    Битрейт : 1283 Кбит/сек
    Ширина : 1280 пикселей
    Высота : 720 пикселей
    Соотношение сторон : 16: 9
    Режим частоты кадров : Постоянный
    Частота кадров : 29, 970 (30000/1001) кадров/сек
    Цветовое пространство : YUV
    Субдискретизация насыщенности : 4: 2: 0
    Битовая глубина : 8 бит
    Тип развёртки : Прогрессивная
    Бит/(Пиксели*Кадры) : 0.046
    Размер потока : 105 Мбайт (86%)
    Аудио
    Идентификатор : 2
    Формат : AAC
    Формат/Информация : Advanced Audio Codec
    Профиль формата : LC
    Идентификатор кодека : 40
    Продолжительность : 11 м. 25 с.
    Вид битрейта : Постоянный
    Битрейт : 192 Кбит/сек
    Каналы : 2 канала
    Расположение каналов : Front: L R
    Частота : 44, 1 КГц
    Частота кадров : 43, 066 кадра/сек (1024 spf)
    Метод сжатия : С потерями
    Размер потока : 15, 9 Мбайт (13%)
    Default : Да
    Alternate group : 1


    Александр Гусин | Архитектурные решения. Жилой дом (2017) [unpacked]
    загрузка...
    Рейтинг →
     (голосов: 1, оценка 5/5, голосовать можно 1 раз )

    Другие торренты по теме:

  • Александр Волков | Волшебник Изумрудного города (2014) [PDF, DJVU]
  • Александр Чернышев | Первенцы Сталинского флота. Сторожевые корабли типа «Ураган» (2014) [PDF]
  • Александр Прозоров | Земля мертвых (2017) [MP3]
  • Александр Бушков | Ближе, бандерлоги! (2016) [FB2]
  • Александр Прозоров | Череп епископа (2017) [MP3]
  • Карл Александр | Путешествие в машине времени (2017) [FB2]
  • Александр Пушкин, Александр Барков | Поэзия русского эроса (2014) [MP3] скачать через торрент бесплатно
  • Александр Михайловский, Александр Харников | Однажды в октябре (2015) [FB2]


    • Комментарии (0):

      Информация

      Информация

        Посетители, находящиеся в группе Гости, не могут оставлять комментарии в данной новости.

        ↓ Меню




        ↓ Опрос

        Вы добавили сайт в закладки?
        Да
        Нет


        Top 10 за месяц (Книги)

        Андрей Сазонов | Мифы о нашем теле. Научный подход к примитивным вопросам (2017) [FB2]

        (скачиваний: 34)
        Оуэйн Сервис, Рори Галлахер | Начинай с малого. Научно доказанная система достижения больших целей (2018) [PDF, FB2, EPUB]

        (скачиваний: 28)
        Элла Берту, Сьюзен Элдеркин | Книга как лекарство. Скорая литературная помощь от А до Я (2016) [FB2, EPUB]

        (скачиваний: 28)
        Евгений Старухин | Цикл «Лесовик» [4 книги. Обновляемая] (2015-2017) [FB2]

        (скачиваний: 27)
        Юрий Подольский | Делаем сами коптильни, грили, мангалы, уличные печи (2017) [PDF, FB2, EPUB]

        (скачиваний: 26)
        Дмитрий Петров, Алексей Кржижевский | Серия: Полиглот. Выучим иностранный язык за 16 часов [5 книг] (2014-2015) [PDF, DJVU]

        (скачиваний: 25)
        Кевин Келли | Неизбежно. 12 технологических трендов, которые определяют наше будущее (2017) [PDF, EPUB, MOBI]

        (скачиваний: 24)
        Григорий-Азиз | Фишки Ворда и Экселя [Word and Excel] (2017) PCRec [H.264]

        (скачиваний: 24)
        Наталья Корикова | Полезные и вкусные бутерброды. Алгоритм приготовления и рецепты (2017) [PDF]

        (скачиваний: 22)
        Голубев Андрей | Ремонт ЖК телевизоров и мониторов (2015) CamRip [H.264 / 720p] скачать через торрент бесплатно

        (скачиваний: 22)