.
Авторизация | Регистрация
Хочешь лучшие торренты? Добавь свой email!
Добавить

Торрент скачать бесплатно

» » Давид Дубницкий | Жанровый НЮ-портрет (2016) PCRec торрент скачать бесплатно




    Давид Дубницкий | Жанровый НЮ-портрет (2016) PCRec торрент скачать бесплатно

    Опубликовал: Админ | Дата: 2-08-2017, 05:00 | Просмотров: 40

    Автор (режиссер): Давид Дубницкий
    Производство: highlights
    Жанр: Съемка фото, обработка, ретушь

    Описание

    Фотограф Давид Дубницкий расскажет о том, где же черпать вдохновение, как же максимально продуктивно найти и выбрать подходящую модель, как выбрать локацию для съёмки и как создать антураж в обычных для съёмки местах, также вы узнаете о работе со светом и много много чего интересного об обработке.
    Продолжительность: 05: 15: 35
    Качество видео: PCRec
    Видео: AVC/H.264, 1280x720, ~2 500 kb/s
    Аудио: AAC, 2 ch, 181 kb/s

    General
    Complete name : F: Давид Дубницкий - Жанровый НЮ-портрет (2016)Часть 1.mp4
    Format : MPEG-4
    Format profile : Base Media
    Codec ID : isom (isom/iso2/avc1/mp41)
    File size : 1.05 GiB
    Duration : 55 min 47 s
    Overall bit rate : 2 690 kb/s
    Writing application : Lavf57.41.100
    Video
    ID : 1
    Format : AVC
    Format/Info : Advanced Video Codec
    Format profile : High@L3.1
    Format settings, CABAC : Yes
    Format settings, ReFrames : 4 frames
    Codec ID : avc1
    Codec ID/Info : Advanced Video Coding
    Duration : 55 min 47 s
    Bit rate : 2 500 kb/s
    Width : 1 280 pixels
    Height : 720 pixels
    Display aspect ratio : 16: 9
    Frame rate mode : Constant
    Frame rate : 30.000 FPS
    Color space : YUV
    Chroma subsampling : 4: 2: 0
    Bit depth : 8 bits
    Scan type : Progressive
    Bits/(Pixel*Frame) : 0.090
    Stream size : 998 MiB (93%)
    Audio
    ID : 2
    Format : AAC
    Format/Info : Advanced Audio Codec
    Format profile : LC
    Codec ID : 40
    Duration : 55 min 46 s
    Bit rate mode : Constant
    Bit rate : 181 kb/s
    Channel(s) : 2 channels
    Channel positions : Front: L R
    Sampling rate : 44.1 kHz
    Frame rate : 43.066 FPS (1024 spf)
    Compression mode : Lossy
    Stream size : 72.2 MiB (7%)
    Title : simple_aac
    Default : Yes
    Alternate group : 1


    Скриншоты для ознакомления




    Давид Дубницкий | Жанровый НЮ-портрет (2016) PCRec
    загрузка...
    Рейтинг →
     (голосов: 1, оценка 3/5, голосовать можно 1 раз )

    Другие торренты по теме:

  • Давид Тухманов - Притяжение Земли. Лучшие песни 70х и 80х гг. (1997) [FLAC|Lossless]<Pop / Retro>
  • David Golostchekin & Jazz Old Trio (Давид Голощекин и джазовое старое трио) - Again Together (Опять Вместе) (1999) [FLAC|Lossless]<Jazz, Mainstream Jazz> скачать через торрент бесплатно
  • David Golostchekin (Давид Голощёкин) Quartet - Songs For Loved Ones (Песни Для Любимых) (2010) [FLAC|Lossless]<Jazz, Mainstream Jazz> скачать через торрент бесплатно
  • Jazz Old Trio featuring David Golostchokin (Давид Голощекин) - Tenderly, Tenderly, and Only Tenderly (Нежно, нежно и только) (1996) [FLAC|Lossless]<Jazz, Mainstream Jazz> скачать через торрент бесплатно
  • Царь Давид / King David (1985) WEB-DLRip [H.264] скачать через торрент бесплатно
  • Давид Серван-Шрейбер | Антирак. Новый образ жизни (2014) [PDF, DJVU] скачать через торрент бесплатно
  • Пророки. Давид (2016) HDTVRip [720p-LQ]
  • Давид Рикардо | Начала политической экономии и налогового обложения (2016) [FB2]


    • Комментарии (0):

      Информация

      Информация

        Посетители, находящиеся в группе Гости, не могут оставлять комментарии в данной новости.

        ↓ Меню




        ↓ Опрос

        Вы добавили сайт в закладки?
        Да
        Нет


        Top 10 за месяц (Книги)