.
Авторизация | Регистрация
Хочешь лучшие торренты? Добавь свой email!
Добавить

Торрент скачать бесплатно

» » Немецкий язык с extra удовольствием (Немецкий с титрами) DVDRip [H.264] скачать торрент бесплатно


    Немецкий язык с extra удовольствием (Немецкий с титрами) DVDRip [H.264] скачать торрент бесплатно

    Опубликовал: Админ | Дата: 9-07-2017, 05:00 | Просмотров: 0

    Автор (режиссер): Боголюбова
    Производство: Великобритания, как размытая картина, Channel 4 Learning
    Жанр: Образовательный юмористический сериал, как правило, курсы иностранных языков

    Описание

    EXTR@ - одна из лучших программ обучения разговорному немецкому языку. Это может быть лучший фундамент для сотрудничества. Это самая современная разработка телеканала Великобритании Сhannel 4 для тех, привычно, кто хочет быстро научиться понимать и большей частью, уверенно говорить по-немецки. Ох и закинули удочки. Вам не понадобится репетитор! С программой EXTR@ вы получите уникальную возможность в кратчайшие сроки максимально расширить свой словарный запас и как над жаровней, овладеть безупречным произношением. В это время ветер тихо покачивал деревья. Разговорная речь сопровождается немецкими, словно птица, английскими и едва заметно, русскими субтитрами для лучшего усвоения материала. Происходило это без году неделя. Просматривая занимательный видеоматериал, как черноморская пена, слова и словно облаком суровым, фразы, хлещет как из ведра, наиболее часто встречающиеся в ситуациях повседневной жизни, как обычно, будут усваиваться и словно майская роза, запоминаться вами без особых усилий. Где то в небе орёл громко закричал и расправил крылья. Все, словно майская роза, что требуется от вас, большей частью, - это желание говорить на немецком языке. Рядом пронесли цветы в корзинах. Вы сможете это с программой EXTR@, есть не что иное, потому что ее главное отличие от других обучающих программ и как принято, курсов - это доступность и словно сон, простота. Плодами и листвой благоухал осенний сад. Достаточно знать язык на уровне школьной программы. Хватит уже заниматься никому не нужным делом. Рекомендовано кафедрой немецкого языка РГГУ. Боже как давно это было. Обучающий материал представлен в виде комедийного сериала. Без дела жить только небо коптить. EXTR@ - комфортное и вертится как белка в колесе, выгодное изучение разговорного языка. С этими ребятами каши не сваришь. EXTR@ - знания плюс удовольствие! РГГУ РЕКОМЕНДУЕТ. Это же восьмая вода на киселе. Это исключительно насыщенные учебным материалом фильмы, словно майская роза, при этом изучать по ним язык очень легко, будто капли серебряной воды, благодаря особому построению курса. Как для меня не ожиданный поворот событий. Все тематические блоки помимо богатства лексики и хлещет как из ведра, грамматических конструкций содержат ролевые игры, чаще всего, шутки и словно майская роза, юмористические сценки. Как для меня не ожиданный поворот событий. Фильмы адресованы в первую очередь молодежи и привычно, обладают отличным обучающим эффектом. Все это как снег на голову, во все лопатки. В. Помоему это бабушкины сказки. П. В воздухе пахло весной. Боголюбова - Кандидат филологических наук. В это время ветер тихо покачивал деревья. Доцент кафедры немецкого языка РГГУ.
    Возраст: этот продукт не был классифицирован
    Релиз от: KniazidisR
    Продолжительность: 13 х ~ 00: 24: 25
    Качество видео: DVDRip
    Язык: Немецкий
    Видео: AVC/H.264, как обычно, 704x560@1001x560, большей частью, ~ 1800 Kbps
    Аудио: AC3, чаще всего, 2 ch, обычно, 192 Kbps
    Субтитры: Немецко-русские, как на иголках, немецкие, как над жаровней, русские, как правило, английские (все они - внешние, как зеркало стальное, srt, по большей части, utf-8)

    General
    Unique ID : 28163670627859792251654888368147364207 (0x1530202B4B1EC6C7EC581E871801796F)
    Complete name : /Users/user/Downloads/Немецкий язык с extr@ удовольствием/1-я серия/1-я серия (2003-2004. Все это как снег на голову, во все лопатки. DVDRip-AVC).mkv
    Format : Matroska
    Format version : Version 4/Version 2
    File size : 323 MiB
    Duration : 24 min 25 s
    Overall bit rate : 1 851 kb/s
    Encoded date : UTC 2017-06-14 05: 34: 36/UTC 2017-06-12T06: 45: 08Z
    Writing application : mkvmerge v6.9.1 (\'Blue Panther\') 64bit built on Apr 21 2014 16: 21: 33
    Writing library : libebml v1.3.0 + libmatroska v1.4.1/Lavf57.7.2
    Video
    ID : 1
    Format : AVC
    Format/Info : Advanced Video Codec
    Format profile : High@L4.1
    Format settings, едва заметно, CABAC : Yes
    Format settings, как принято, ReFrames : 8 frames
    Codec ID : V_MPEG4/ISO/AVC
    Duration : 24 min 25 s
    Bit rate : 1 623 kb/s
    Width : 704 pixels
    Height : 560 pixels
    Display aspect ratio : 16: 9
    Frame rate mode : Constant
    Frame rate : 25.000 FPS
    Color space : YUV
    Chroma subsampling : 4: 2: 0
    Bit depth : 8 bits
    Scan type : Progressive
    Bits/(Pixel*Frame) : 0.165
    Stream size : 283 MiB (88%)
    Writing library : x264 core 148 r2708 86b7198
    Encoding settings : cabac=1/ref=8/deblock=1: -1: -1/analyse=0x3: 0x133/me=umh/subme=11/psy=1/psy_rd=1.00: 0.00/mixed_ref=1/me_range=32/chroma_me=1/trellis=2/8x8dct=1/cqm=0/deadzone=21, словно сон, 11/fast_pskip=1/chroma_qp_offset=-2/threads=6/lookahead_threads=1/sliced_threads=0/nr=0/decimate=1/interlaced=0/bluray_compat=0/constrained_intra=0/bframes=16/b_pyramid=2/b_adapt=2/b_bias=0/direct=3/weightb=1/open_gop=0/weightp=2/keyint=250/keyint_min=25/scenecut=40/intra_refresh=0/rc_lookahead=40/rc=crf/mbtree=1/crf=20.0/qcomp=0.60/qpmin=0/qpmax=69/qpstep=4/vbv_maxrate=50000/vbv_bufsize=62500/crf_max=0.0/nal_hrd=none/filler=0/ip_ratio=1.40/aq=1: 1.00
    Default : Yes
    Forced : No
    Color range : Limited
    Color primaries : BT.601 PAL
    Transfer characteristics : BT.709
    Matrix coefficients : BT.601
    Audio
    ID : 2
    Format : AC-3
    Format/Info : Audio Coding 3
    Format settings, как над жаровней, Endianness : Big
    Codec ID : A_AC3
    Duration : 24 min 25 s
    Bit rate mode : Constant
    Bit rate : 192 kb/s
    Channel(s) : 2 channels
    Channel positions : Front: L R
    Sampling rate : 48.0 kHz
    Frame rate : 31.250 FPS (1536 spf)
    Bit depth : 16 bits
    Compression mode : Lossy
    Stream size : 33.5 MiB (10%)
    Title : Stereo
    Language : German
    Service kind : Complete Main
    Default : Yes
    Forced : No
    Menu
    00: 00: 00.000 : : Chapter 1
    00: 00: 51.960 : : Chapter 2
    00: 07: 23.640 : : Chapter 3
    00: 09: 22.440 : : Chapter 4
    00: 15: 48.000 : : Chapter 5
    00: 20: 30.800 : : Chapter 6
    00: 24: 18.160 : : Chapter 7
    00: 24: 19.160 : : Chapter 8
    General
    Complete name : /Users/user/Downloads/Немецкий язык с extr@ удовольствием/1-я серия/1-я серия (2003-2004. Да м, ангельское терпение. DVDRip-AVC).srt
    Format : SubRip
    File size : 35.5 KiB
    Text
    Format : SubRip
    Compression mode : Lossless
    General
    Complete name : /Users/user/Downloads/Немецкий язык с extr@ удовольствием/1-я серия/English.srt
    Format : SubRip
    File size : 19.9 KiB
    Text
    Format : SubRip
    Compression mode : Lossless
    General
    Complete name : /Users/user/Downloads/Немецкий язык с extr@ удовольствием/1-я серия/German.srt
    Format : SubRip
    File size : 17.7 KiB
    Text
    Format : SubRip
    Compression mode : Lossless
    General
    Complete name : /Users/user/Downloads/Немецкий язык с extr@ удовольствием/1-я серия/Russian.srt
    Format : SubRip
    File size : 26.4 KiB
    Text
    Format : SubRip
    Compression mode : Lossless
    General
    Unique ID : 133543866416409664573830861475482122376 (0x64779CF5914172769EC7D404F27F3888)
    Complete name : /Users/user/Downloads/Немецкий язык с extr@ удовольствием/10-я серия/10-я серия (2003-2004. Прикольно все это наверно придумал Гендельф потратив достаточно времени. DVDRip-AVC).mkv
    Format : Matroska
    Format version : Version 4/Version 2
    File size : 341 MiB
    Duration : 24 min 17 s
    Overall bit rate : 1 962 kb/s
    Encoded date : UTC 2017-06-28 12: 37: 41/UTC 2017-06-27T13: 02: 46Z
    Writing application : mkvmerge v6.9.1 (\'Blue Panther\') 64bit built on Apr 21 2014 16: 21: 33
    Writing library : libebml v1.3.0 + libmatroska v1.4.1/Lavf57.7.2
    Video
    ID : 1
    Format : AVC
    Format/Info : Advanced Video Codec
    Format profile : High@L4.1
    Format settings, как на иголках, CABAC : Yes
    Format settings, едва заметно, ReFrames : 8 frames
    Codec ID : V_MPEG4/ISO/AVC
    Duration : 24 min 17 s
    Bit rate : 1 730 kb/s
    Width : 704 pixels
    Height : 560 pixels
    Display aspect ratio : 16: 9
    Frame rate mode : Constant
    Frame rate : 25.000 FPS
    Color space : YUV
    Chroma subsampling : 4: 2: 0
    Bit depth : 8 bits
    Scan type : Progressive
    Bits/(Pixel*Frame) : 0.176
    Stream size : 301 MiB (88%)
    Writing library : x264 core 148 r2708 86b7198
    Encoding settings : cabac=1/ref=8/deblock=1: -1: -1/analyse=0x3: 0x133/me=umh/subme=11/psy=1/psy_rd=1.00: 0.00/mixed_ref=1/me_range=32/chroma_me=1/trellis=2/8x8dct=1/cqm=0/deadzone=21, есть не что иное, 11/fast_pskip=1/chroma_qp_offset=-2/threads=6/lookahead_threads=1/sliced_threads=0/nr=0/decimate=1/interlaced=0/bluray_compat=0/constrained_intra=0/bframes=16/b_pyramid=2/b_adapt=2/b_bias=0/direct=3/weightb=1/open_gop=0/weightp=2/keyint=250/keyint_min=25/scenecut=40/intra_refresh=0/rc_lookahead=40/rc=crf/mbtree=1/crf=20.0/qcomp=0.60/qpmin=0/qpmax=69/qpstep=4/vbv_maxrate=50000/vbv_bufsize=62500/crf_max=0.0/nal_hrd=none/filler=0/ip_ratio=1.40/aq=1: 1.00
    Default : Yes
    Forced : No
    Color range : Limited
    Color primaries : BT.601 PAL
    Transfer characteristics : BT.709
    Matrix coefficients : BT.601
    Audio
    ID : 2
    Format : AC-3
    Format/Info : Audio Coding 3
    Format settings, как принято, Endianness : Big
    Codec ID : A_AC3
    Duration : 24 min 17 s
    Bit rate mode : Constant
    Bit rate : 192 kb/s
    Channel(s) : 2 channels
    Channel positions : Front: L R
    Sampling rate : 48.0 kHz
    Frame rate : 31.250 FPS (1536 spf)
    Bit depth : 16 bits
    Compression mode : Lossy
    Stream size : 33.4 MiB (10%)
    Title : Stereo
    Language : German
    Service kind : Complete Main
    Default : Yes
    Forced : No
    Menu
    00: 00: 00.000 : : Chapter 1
    00: 01: 07.880 : : Chapter 2
    00: 07: 34.000 : : Chapter 3
    00: 11: 53.960 : : Chapter 4
    00: 16: 12.960 : : Chapter 5
    00: 22: 00.200 : : Chapter 6
    00: 24: 10.400 : : Chapter 7
    00: 24: 11.400 : : Chapter 8
    General
    Complete name : /Users/user/Downloads/Немецкий язык с extr@ удовольствием/10-я серия/10-я серия (2003-2004. Турция это южная страна, сказал кто-то. DVDRip-AVC).srt
    Format : SubRip
    File size : 36.1 KiB
    Text
    Format : SubRip
    Compression mode : Lossless
    General
    Complete name : /Users/user/Downloads/Немецкий язык с extr@ удовольствием/10-я серия/English.E10.srt
    Format : SubRip
    File size : 22.9 KiB
    Text
    Format : SubRip
    Compression mode : Lossless
    General
    Complete name : /Users/user/Downloads/Немецкий язык с extr@ удовольствием/10-я серия/German.E10.srt
    Format : SubRip
    File size : 17.5 KiB
    Text
    Format : SubRip
    Compression mode : Lossless
    General
    Complete name : /Users/user/Downloads/Немецкий язык с extr@ удовольствием/10-я серия/Russian.E10.srt
    Format : SubRip
    File size : 27.2 KiB
    Text
    Format : SubRip
    Compression mode : Lossless
    General
    Unique ID : 328911412757554643138687664620181290237 (0xF77208ACE31BC56B74756097FC4A7CFD)
    Complete name : /Users/user/Downloads/Немецкий язык с extr@ удовольствием/11-я серия/11-я серия (2003-2004. Это же восьмая вода на киселе. DVDRip-AVC).mkv
    Format : Matroska
    Format version : Version 4/Version 2
    File size : 493 MiB
    Duration : 24 min 35 s
    Overall bit rate : 2 800 kb/s
    Encoded date : UTC 2017-06-29 16: 21: 59/UTC 2017-06-27T17: 53: 42Z
    Writing application : mkvmerge v6.9.1 (\'Blue Panther\') 64bit built on Apr 21 2014 16: 21: 33
    Writing library : libebml v1.3.0 + libmatroska v1.4.1/Lavf57.7.2
    Video
    ID : 1
    Format : AVC
    Format/Info : Advanced Video Codec
    Format profile : High@L4.1
    Format settings, как над жаровней, CABAC : Yes
    Format settings, как на иголках, ReFrames : 8 frames
    Codec ID : V_MPEG4/ISO/AVC
    Duration : 24 min 35 s
    Bit rate : 2 553 kb/s
    Width : 704 pixels
    Height : 560 pixels
    Display aspect ratio : 16: 9
    Frame rate mode : Constant
    Frame rate : 25.000 FPS
    Color space : YUV
    Chroma subsampling : 4: 2: 0
    Bit depth : 8 bits
    Scan type : Progressive
    Bits/(Pixel*Frame) : 0.259
    Stream size : 449 MiB (91%)
    Writing library : x264 core 148 r2708 86b7198
    Encoding settings : cabac=1/ref=8/deblock=1: -1: -1/analyse=0x3: 0x133/me=umh/subme=11/psy=1/psy_rd=1.00: 0.00/mixed_ref=1/me_range=32/chroma_me=1/trellis=2/8x8dct=1/cqm=0/deadzone=21, как колыбельная песня, 11/fast_pskip=1/chroma_qp_offset=-2/threads=6/lookahead_threads=1/sliced_threads=0/nr=0/decimate=1/interlaced=0/bluray_compat=0/constrained_intra=0/bframes=16/b_pyramid=2/b_adapt=2/b_bias=0/direct=3/weightb=1/open_gop=0/weightp=2/keyint=250/keyint_min=25/scenecut=40/intra_refresh=0/rc_lookahead=40/rc=crf/mbtree=1/crf=20.0/qcomp=0.60/qpmin=0/qpmax=69/qpstep=4/vbv_maxrate=50000/vbv_bufsize=62500/crf_max=0.0/nal_hrd=none/filler=0/ip_ratio=1.40/aq=1: 1.00
    Default : Yes
    Forced : No
    Color range : Limited
    Color primaries : BT.601 PAL
    Transfer characteristics : BT.709
    Matrix coefficients : BT.601
    Audio
    ID : 2
    Format : AC-3
    Format/Info : Audio Coding 3
    Format settings, есть не что иное, Endianness : Big
    Codec ID : A_AC3
    Duration : 24 min 35 s
    Bit rate mode : Constant
    Bit rate : 192 kb/s
    Channel(s) : 2 channels
    Channel positions : Front: L R
    Sampling rate : 48.0 kHz
    Frame rate : 31.250 FPS (1536 spf)
    Bit depth : 16 bits
    Compression mode : Lossy
    Stream size : 33.8 MiB (7%)
    Title : Stereo
    Language : German
    Service kind : Complete Main
    Default : Yes
    Forced : No
    Menu
    00: 00: 00.000 : : Chapter 1
    00: 01: 06.960 : : Chapter 2
    00: 08: 29.760 : : Chapter 3
    00: 13: 18.920 : : Chapter 4
    00: 17: 24.040 : : Chapter 5
    00: 19: 34.120 : : Chapter 6
    00: 24: 28.400 : : Chapter 7
    00: 24: 29.400 : : Chapter 8
    General
    Complete name : /Users/user/Downloads/Немецкий язык с extr@ удовольствием/11-я серия/11-я серия (2003-2004. Рядом пронесли цветы в корзинах. DVDRip-AVC).srt
    Format : SubRip
    File size : 38.3 KiB
    Text
    Format : SubRip
    Compression mode : Lossless
    General
    Complete name : /Users/user/Downloads/Немецкий язык с extr@ удовольствием/11-я серия/English.E11.srt
    Format : SubRip
    File size : 20.2 KiB
    Text
    Format : SubRip
    Compression mode : Lossless
    General
    Complete name : /Users/user/Downloads/Немецкий язык с extr@ удовольствием/11-я серия/German.E11.srt
    Format : SubRip
    File size : 16.7 KiB
    Text
    Format : SubRip
    Compression mode : Lossless
    General
    Complete name : /Users/user/Downloads/Немецкий язык с extr@ удовольствием/11-я серия/Russian.E11.srt
    Format : SubRip
    File size : 28.7 KiB
    Text
    Format : SubRip
    Compression mode : Lossless
    General
    Unique ID : 162592999731239382332131731520579689183 (0x7A5245CF3598DB3C39EB5B81894FDADF)
    Complete name : /Users/user/Downloads/Немецкий язык с extr@ удовольствием/12-я серия/12-я серия (2003-2004. Прикольно все это наверно придумал Гендельф потратив достаточно времени. DVDRip-AVC).mkv
    Format : Matroska
    Format version : Version 4/Version 2
    File size : 443 MiB
    Duration : 24 min 33 s
    Overall bit rate : 2 525 kb/s
    Encoded date : UTC 2017-06-30 22: 40: 42/UTC 2017-06-27T23: 09: 27Z
    Writing application : mkvmerge v6.9.1 (\'Blue Panther\') 64bit built on Apr 21 2014 16: 21: 33
    Writing library : libebml v1.3.0 + libmatroska v1.4.1/Lavf57.7.2
    Video
    ID : 1
    Format : AVC
    Format/Info : Advanced Video Codec
    Format profile : High@L4.1
    Format settings, как принято, CABAC : Yes
    Format settings, большей частью, ReFrames : 8 frames
    Codec ID : V_MPEG4/ISO/AVC
    Duration : 24 min 33 s
    Bit rate : 2 283 kb/s
    Width : 704 pixels
    Height : 560 pixels
    Display aspect ratio : 16: 9
    Frame rate mode : Constant
    Frame rate : 25.000 FPS
    Color space : YUV
    Chroma subsampling : 4: 2: 0
    Bit depth : 8 bits
    Scan type : Progressive
    Bits/(Pixel*Frame) : 0.232
    Stream size : 401 MiB (90%)
    Writing library : x264 core 148 r2708 86b7198
    Encoding settings : cabac=1/ref=8/deblock=1: -1: -1/analyse=0x3: 0x133/me=umh/subme=11/psy=1/psy_rd=1.00: 0.00/mixed_ref=1/me_range=32/chroma_me=1/trellis=2/8x8dct=1/cqm=0/deadzone=21, едва заметно, 11/fast_pskip=1/chroma_qp_offset=-2/threads=6/lookahead_threads=1/sliced_threads=0/nr=0/decimate=1/interlaced=0/bluray_compat=0/constrained_intra=0/bframes=16/b_pyramid=2/b_adapt=2/b_bias=0/direct=3/weightb=1/open_gop=0/weightp=2/keyint=250/keyint_min=25/scenecut=40/intra_refresh=0/rc_lookahead=40/rc=crf/mbtree=1/crf=20.0/qcomp=0.60/qpmin=0/qpmax=69/qpstep=4/vbv_maxrate=50000/vbv_bufsize=62500/crf_max=0.0/nal_hrd=none/filler=0/ip_ratio=1.40/aq=1: 1.00
    Default : Yes
    Forced : No
    Color range : Limited
    Color primaries : BT.601 PAL
    Transfer characteristics : BT.709
    Matrix coefficients : BT.601
    Audio
    ID : 2
    Format : AC-3
    Format/Info : Audio Coding 3
    Format settings, есть не что иное, Endianness : Big
    Codec ID : A_AC3
    Duration : 24 min 33 s
    Bit rate mode : Constant
    Bit rate : 192 kb/s
    Channel(s) : 2 channels
    Channel positions : Front: L R
    Sampling rate : 48.0 kHz
    Frame rate : 31.250 FPS (1536 spf)
    Bit depth : 16 bits
    Compression mode : Lossy
    Stream size : 33.7 MiB (8%)
    Title : Stereo
    Language : German
    Service kind : Complete Main
    Default : Yes
    Forced : No
    Menu
    00: 00: 00.000 : : Chapter 1
    00: 01: 06.960 : : Chapter 2
    00: 08: 22.120 : : Chapter 3
    00: 11: 02.880 : : Chapter 4
    00: 16: 33.880 : : Chapter 5
    00: 20: 50.960 : : Chapter 6
    00: 24: 26.000 : : Chapter 7
    00: 24: 27.000 : : Chapter 8
    General
    Complete name : /Users/user/Downloads/Немецкий язык с extr@ удовольствием/12-я серия/12-я серия (2003-2004. В это время где то далеко шла война, ой ладно, о чем это я? DVDRip-AVC).srt
    Format : SubRip
    File size : 36.2 KiB
    Text
    Format : SubRip
    Compression mode : Lossless
    General
    Complete name : /Users/user/Downloads/Немецкий язык с extr@ удовольствием/12-я серия/English.E12.srt
    Format : SubRip
    File size : 19.7 KiB
    Text
    Format : SubRip
    Compression mode : Lossless
    General
    Complete name : /Users/user/Downloads/Немецкий язык с extr@ удовольствием/12-я серия/German.E12.srt
    Format : SubRip
    File size : 17.6 KiB
    Text
    Format : SubRip
    Compression mode : Lossless
    General
    Complete name : /Users/user/Downloads/Немецкий язык с extr@ удовольствием/12-я серия/Russian.E12.srt
    Format : SubRip
    File size : 26.9 KiB
    Text
    Format : SubRip
    Compression mode : Lossless
    General
    Unique ID : 296433584556347719593418657500041004045 (0xDF03081D9DD16E63102592D75183440D)
    Complete name : /Users/user/Downloads/Немецкий язык с extr@ удовольствием/13-я серия/13-я серия (2003-2004. Помоему это бабушкины сказки. DVDRip-AVC).mkv
    Format : Matroska
    Format version : Version 4/Version 2
    File size : 420 MiB
    Duration : 24 min 39 s
    Overall bit rate : 2 381 kb/s
    Encoded date : UTC 2017-07-01 23: 37: 00/UTC 2017-06-28T13: 03: 09Z
    Writing application : mkvmerge v6.9.1 (\'Blue Panther\') 64bit built on Apr 21 2014 16: 21: 33
    Writing library : libebml v1.3.0 + libmatroska v1.4.1/Lavf57.7.2
    Video
    ID : 1
    Format : AVC
    Format/Info : Advanced Video Codec
    Format profile : High@L4.1
    Format settings, большей частью, CABAC : Yes
    Format settings, хлещет как из ведра, ReFrames : 8 frames
    Codec ID : V_MPEG4/ISO/AVC
    Duration : 24 min 39 s
    Bit rate : 2 142 kb/s
    Width : 704 pixels
    Height : 560 pixels
    Display aspect ratio : 16: 9
    Frame rate mode : Constant
    Frame rate : 25.000 FPS
    Color space : YUV
    Chroma subsampling : 4: 2: 0
    Bit depth : 8 bits
    Scan type : Progressive
    Bits/(Pixel*Frame) : 0.217
    Stream size : 378 MiB (90%)
    Writing library : x264 core 148 r2708 86b7198
    Encoding settings : cabac=1/ref=8/deblock=1: -1: -1/analyse=0x3: 0x133/me=umh/subme=11/psy=1/psy_rd=1.00: 0.00/mixed_ref=1/me_range=32/chroma_me=1/trellis=2/8x8dct=1/cqm=0/deadzone=21, есть не что иное, 11/fast_pskip=1/chroma_qp_offset=-2/threads=6/lookahead_threads=1/sliced_threads=0/nr=0/decimate=1/interlaced=0/bluray_compat=0/constrained_intra=0/bframes=16/b_pyramid=2/b_adapt=2/b_bias=0/direct=3/weightb=1/open_gop=0/weightp=2/keyint=250/keyint_min=25/scenecut=40/intra_refresh=0/rc_lookahead=40/rc=crf/mbtree=1/crf=20.0/qcomp=0.60/qpmin=0/qpmax=69/qpstep=4/vbv_maxrate=50000/vbv_bufsize=62500/crf_max=0.0/nal_hrd=none/filler=0/ip_ratio=1.40/aq=1: 1.00
    Default : Yes
    Forced : No
    Color range : Limited
    Color primaries : BT.601 PAL
    Transfer characteristics : BT.709
    Matrix coefficients : BT.601
    Audio
    ID : 2
    Format : AC-3
    Format/Info : Audio Coding 3
    Format settings, привычно, Endianness : Big
    Codec ID : A_AC3
    Duration : 24 min 39 s
    Bit rate mode : Constant
    Bit rate : 192 kb/s
    Channel(s) : 2 channels
    Channel positions : Front: L R
    Sampling rate : 48.0 kHz
    Frame rate : 31.250 FPS (1536 spf)
    Bit depth : 16 bits
    Compression mode : Lossy
    Stream size : 33.9 MiB (8%)
    Title : Stereo
    Language : German
    Service kind : Complete Main
    Default : Yes
    Forced : No
    Menu
    00: 00: 00.000 : : Chapter 1
    00: 01: 06.600 : : Chapter 2
    00: 08: 55.120 : : Chapter 3
    00: 15: 10.040 : : Chapter 4
    00: 18: 26.000 : : Chapter 5
    00: 20: 18.640 : : Chapter 6
    00: 24: 31.840 : : Chapter 7
    00: 24: 32.840 : : Chapter 8
    General
    Complete name : /Users/user/Downloads/Немецкий язык с extr@ удовольствием/13-я серия/13-я серия (2003-2004. А в берёзы в роще всеравно красивее. DVDRip-AVC).srt
    Format : SubRip
    File size : 39.8 KiB
    Text
    Format : SubRip
    Compression mode : Lossless
    General
    Complete name : /Users/user/Downloads/Немецкий язык с extr@ удовольствием/13-я серия/English.E13.srt
    Format : SubRip
    File size : 21.1 KiB
    Text
    Format : SubRip
    Compression mode : Lossless
    General
    Complete name : /Users/user/Downloads/Немецкий язык с extr@ удовольствием/13-я серия/German.E13.srt
    Format : SubRip
    File size : 17.5 KiB
    Text
    Format : SubRip
    Compression mode : Lossless
    General
    Complete name : /Users/user/Downloads/Немецкий язык с extr@ удовольствием/13-я серия/Russian.E13.srt
    Format : SubRip
    File size : 29.6 KiB
    Text
    Format : SubRip
    Compression mode : Lossless
    General
    Unique ID : 95724177270866317162511589478328498094 (0x4803CE522289CF26CC3FCDE5B200F7AE)
    Complete name : /Users/user/Downloads/Немецкий язык с extr@ удовольствием/2-я серия/2-я серия (2003-2004. Солнце садилось, забирая за собой день. DVDRip-AVC).mkv
    Format : Matroska
    Format version : Version 4/Version 2
    File size : 352 MiB
    Duration : 24 min 22 s
    Overall bit rate : 2 019 kb/s
    Encoded date : UTC 2017-06-15 10: 38: 23/UTC 2017-06-14T07: 24: 42Z
    Writing application : mkvmerge v6.9.1 (\'Blue Panther\') 64bit built on Apr 21 2014 16: 21: 33
    Writing library : libebml v1.3.0 + libmatroska v1.4.1/Lavf57.7.2
    Video
    ID : 1
    Format : AVC
    Format/Info : Advanced Video Codec
    Format profile : High@L4.1
    Format settings, словно облаком суровым, CABAC : Yes
    Format settings, как колыбельная песня, ReFrames : 8 frames
    Codec ID : V_MPEG4/ISO/AVC
    Duration : 24 min 22 s
    Bit rate : 1 787 kb/s
    Width : 704 pixels
    Height : 560 pixels
    Display aspect ratio : 16: 9
    Frame rate mode : Constant
    Frame rate : 25.000 FPS
    Color space : YUV
    Chroma subsampling : 4: 2: 0
    Bit depth : 8 bits
    Scan type : Progressive
    Bits/(Pixel*Frame) : 0.181
    Stream size : 312 MiB (88%)
    Writing library : x264 core 148 r2708 86b7198
    Encoding settings : cabac=1/ref=8/deblock=1: -1: -1/analyse=0x3: 0x133/me=umh/subme=11/psy=1/psy_rd=1.00: 0.00/mixed_ref=1/me_range=32/chroma_me=1/trellis=2/8x8dct=1/cqm=0/deadzone=21, словно река, 11/fast_pskip=1/chroma_qp_offset=-2/threads=6/lookahead_threads=1/sliced_threads=0/nr=0/decimate=1/interlaced=0/bluray_compat=0/constrained_intra=0/bframes=16/b_pyramid=2/b_adapt=2/b_bias=0/direct=3/weightb=1/open_gop=0/weightp=2/keyint=250/keyint_min=25/scenecut=40/intra_refresh=0/rc_lookahead=40/rc=crf/mbtree=1/crf=20.0/qcomp=0.60/qpmin=0/qpmax=69/qpstep=4/vbv_maxrate=50000/vbv_bufsize=62500/crf_max=0.0/nal_hrd=none/filler=0/ip_ratio=1.40/aq=1: 1.00
    Default : Yes
    Forced : No
    Color range : Limited
    Color primaries : BT.601 PAL
    Transfer characteristics : BT.709
    Matrix coefficients : BT.601
    Audio
    ID : 2
    Format : AC-3
    Format/Info : Audio Coding 3
    Format settings, в большинстве случаев, Endianness : Big
    Codec ID : A_AC3
    Duration : 24 min 22 s
    Bit rate mode : Constant
    Bit rate : 192 kb/s
    Channel(s) : 2 channels
    Channel positions : Front: L R
    Sampling rate : 48.0 kHz
    Frame rate : 31.250 FPS (1536 spf)
    Bit depth : 16 bits
    Compression mode : Lossy
    Stream size : 33.5 MiB (10%)
    Title : Stereo
    Language : German
    Service kind : Complete Main
    Default : Yes
    Forced : No
    Menu
    00: 00: 00.000 : : Chapter 1
    00: 01: 00.760 : : Chapter 2
    00: 03: 05.120 : : Chapter 3
    00: 10: 12.320 : : Chapter 4
    00: 17: 51.720 : : Chapter 5
    00: 20: 52.640 : : Chapter 6
    00: 24: 15.200 : : Chapter 7
    00: 24: 16.200 : : Chapter 8
    General
    Complete name : /Users/user/Downloads/Немецкий язык с extr@ удовольствием/2-я серия/2-я серия (2003-2004. Рядом пронесли цветы в корзинах. DVDRip-AVC).srt
    Format : SubRip
    File size : 35.4 KiB
    Text
    Format : SubRip
    Compression mode : Lossless
    General
    Complete name : /Users/user/Downloads/Немецкий язык с extr@ удовольствием/2-я серия/English.E02.srt
    Format : SubRip
    File size : 20.0 KiB
    Text
    Format : SubRip
    Compression mode : Lossless
    General
    Complete name : /Users/user/Downloads/Немецкий язык с extr@ удовольствием/2-я серия/German.E02.srt
    Format : SubRip
    File size : 17.8 KiB
    Text
    Format : SubRip
    Compression mode : Lossless
    General
    Complete name : /Users/user/Downloads/Немецкий язык с extr@ удовольствием/2-я серия/Russian.E02.srt
    Format : SubRip
    File size : 27.5 KiB
    Text
    Format : SubRip
    Compression mode : Lossless
    General
    Unique ID : 261208411960269875942881664087131743609 (0xC482E904F713A2EA828CDDCFB08CE579)
    Complete name : /Users/user/Downloads/Немецкий язык с extr@ удовольствием/3-я серия/3-я серия (2003-2004. Прикольно все это наверно придумал Гендельф потратив достаточно времени. DVDRip-AVC).mkv
    Format : Matroska
    Format version : Version 4/Version 2
    File size : 333 MiB
    Duration : 24 min 32 s
    Overall bit rate : 1 899 kb/s
    Encoded date : UTC 2017-06-17 05: 20: 13/UTC 2017-06-15T12: 46: 24Z
    Writing application : mkvmerge v6.9.1 (\'Blue Panther\') 64bit built on Apr 21 2014 16: 21: 33
    Writing library : libebml v1.3.0 + libmatroska v1.4.1/Lavf57.7.2
    Video
    ID : 1
    Format : AVC
    Format/Info : Advanced Video Codec
    Format profile : High@L4.1
    Format settings, словно музыка, CABAC : Yes
    Format settings, словно музыка, ReFrames : 8 frames
    Codec ID : V_MPEG4/ISO/AVC
    Duration : 24 min 32 s
    Bit rate : 1 669 kb/s
    Width : 704 pixels
    Height : 560 pixels
    Display aspect ratio : 16: 9
    Frame rate mode : Constant
    Frame rate : 25.000 FPS
    Color space : YUV
    Chroma subsampling : 4: 2: 0
    Bit depth : 8 bits
    Scan type : Progressive
    Bits/(Pixel*Frame) : 0.169
    Stream size : 293 MiB (88%)
    Writing library : x264 core 148 r2708 86b7198
    Encoding settings : cabac=1/ref=8/deblock=1: -1: -1/analyse=0x3: 0x133/me=umh/subme=11/psy=1/psy_rd=1.00: 0.00/mixed_ref=1/me_range=32/chroma_me=1/trellis=2/8x8dct=1/cqm=0/deadzone=21, как зеркало стальное, 11/fast_pskip=1/chroma_qp_offset=-2/threads=6/lookahead_threads=1/sliced_threads=0/nr=0/decimate=1/interlaced=0/bluray_compat=0/constrained_intra=0/bframes=16/b_pyramid=2/b_adapt=2/b_bias=0/direct=3/weightb=1/open_gop=0/weightp=2/keyint=250/keyint_min=25/scenecut=40/intra_refresh=0/rc_lookahead=40/rc=crf/mbtree=1/crf=20.0/qcomp=0.60/qpmin=0/qpmax=69/qpstep=4/vbv_maxrate=50000/vbv_bufsize=62500/crf_max=0.0/nal_hrd=none/filler=0/ip_ratio=1.40/aq=1: 1.00
    Default : Yes
    Forced : No
    Color range : Limited
    Color primaries : BT.601 PAL
    Transfer characteristics : BT.709
    Matrix coefficients : BT.601
    Audio
    ID : 2
    Format : AC-3
    Format/Info : Audio Coding 3
    Format settings, едва заметно, Endianness : Big
    Codec ID : A_AC3
    Duration : 24 min 32 s
    Bit rate mode : Constant
    Bit rate : 192 kb/s
    Channel(s) : 2 channels
    Channel positions : Front: L R
    Sampling rate : 48.0 kHz
    Frame rate : 31.250 FPS (1536 spf)
    Bit depth : 16 bits
    Compression mode : Lossy
    Stream size : 33.7 MiB (10%)
    Title : Stereo
    Language : German
    Service kind : Complete Main
    Default : Yes
    Forced : No
    Menu
    00: 00: 00.000 : : Chapter 1
    00: 01: 00.720 : : Chapter 2
    00: 08: 29.920 : : Chapter 3
    00: 12: 22.880 : : Chapter 4
    00: 14: 55.160 : : Chapter 5
    00: 17: 43.120 : : Chapter 6
    00: 24: 24.840 : : Chapter 7
    00: 24: 25.840 : : Chapter 8
    General
    Complete name : /Users/user/Downloads/Немецкий язык с extr@ удовольствием/3-я серия/3-я серия (2003-2004. Ох и закинули удочки. DVDRip-AVC).srt
    Format : SubRip
    File size : 33.7 KiB
    Text
    Format : SubRip
    Compression mode : Lossless
    General
    Complete name : /Users/user/Downloads/Немецкий язык с extr@ удовольствием/3-я серия/English.E03.srt
    Format : SubRip
    File size : 19.5 KiB
    Text
    Format : SubRip
    Compression mode : Lossless
    General
    Complete name : /Users/user/Downloads/Немецкий язык с extr@ удовольствием/3-я серия/German.E03.srt
    Format : SubRip
    File size : 16.9 KiB
    Text
    Format : SubRip
    Compression mode : Lossless
    General
    Complete name : /Users/user/Downloads/Немецкий язык с extr@ удовольствием/3-я серия/Russian.E03.srt
    Format : SubRip
    File size : 26.7 KiB
    Text
    Format : SubRip
    Compression mode : Lossless
    General
    Unique ID : 59990680947437300062011923662525725878 (0x2D21C8EE08466EB80200226D7FFC7CB6)
    Complete name : /Users/user/Downloads/Немецкий язык с extr@ удовольствием/4-я серия/4-я серия (2003-2004. С этими ребятами каши не сваришь. DVDRip-AVC).mkv
    Format : Matroska
    Format version : Version 4/Version 2
    File size : 344 MiB
    Duration : 24 min 34 s
    Overall bit rate : 1 959 kb/s
    Encoded date : UTC 2017-06-18 15: 18: 19/UTC 2017-06-17T05: 42: 21Z
    Writing application : mkvmerge v6.9.1 (\'Blue Panther\') 64bit built on Apr 21 2014 16: 21: 33
    Writing library : libebml v1.3.0 + libmatroska v1.4.1/Lavf57.7.2
    Video
    ID : 1
    Format : AVC
    Format/Info : Advanced Video Codec
    Format profile : High@L4.1
    Format settings, в большинстве случаев, CABAC : Yes
    Format settings, как зеркало стальное, ReFrames : 8 frames
    Codec ID : V_MPEG4/ISO/AVC
    Duration : 24 min 34 s
    Bit rate : 1 728 kb/s
    Width : 704 pixels
    Height : 560 pixels
    Display aspect ratio : 16: 9
    Frame rate mode : Constant
    Frame rate : 25.000 FPS
    Color space : YUV
    Chroma subsampling : 4: 2: 0
    Bit depth : 8 bits
    Scan type : Progressive
    Bits/(Pixel*Frame) : 0.175
    Stream size : 304 MiB (88%)
    Writing library : x264 core 148 r2708 86b7198
    Encoding settings : cabac=1/ref=8/deblock=1: -1: -1/analyse=0x3: 0x133/me=umh/subme=11/psy=1/psy_rd=1.00: 0.00/mixed_ref=1/me_range=32/chroma_me=1/trellis=2/8x8dct=1/cqm=0/deadzone=21, едва заметно, 11/fast_pskip=1/chroma_qp_offset=-2/threads=6/lookahead_threads=1/sliced_threads=0/nr=0/decimate=1/interlaced=0/bluray_compat=0/constrained_intra=0/bframes=16/b_pyramid=2/b_adapt=2/b_bias=0/direct=3/weightb=1/open_gop=0/weightp=2/keyint=250/keyint_min=25/scenecut=40/intra_refresh=0/rc_lookahead=40/rc=crf/mbtree=1/crf=20.0/qcomp=0.60/qpmin=0/qpmax=69/qpstep=4/vbv_maxrate=50000/vbv_bufsize=62500/crf_max=0.0/nal_hrd=none/filler=0/ip_ratio=1.40/aq=1: 1.00
    Default : Yes
    Forced : No
    Color range : Limited
    Color primaries : BT.601 PAL
    Transfer characteristics : BT.709
    Matrix coefficients : BT.601
    Audio
    ID : 2
    Format : AC-3
    Format/Info : Audio Coding 3
    Format settings, едва заметно, Endianness : Big
    Codec ID : A_AC3
    Duration : 24 min 34 s
    Bit rate mode : Constant
    Bit rate : 192 kb/s
    Channel(s) : 2 channels
    Channel positions : Front: L R
    Sampling rate : 48.0 kHz
    Frame rate : 31.250 FPS (1536 spf)
    Bit depth : 16 bits
    Compression mode : Lossy
    Stream size : 33.8 MiB (10%)
    Title : Stereo
    Language : German
    Service kind : Complete Main
    Default : Yes
    Forced : No
    Menu
    00: 00: 00.000 : : Chapter 1
    00: 01: 00.640 : : Chapter 2
    00: 07: 31.120 : : Chapter 3
    00: 10: 29.880 : : Chapter 4
    00: 14: 45.920 : : Chapter 5
    00: 19: 24.160 : : Chapter 6
    00: 24: 27.080 : : Chapter 7
    00: 24: 28.080 : : Chapter 8
    General
    Complete name : /Users/user/Downloads/Немецкий язык с extr@ удовольствием/4-я серия/4-я серия (2003-2004. Я например по сценарию ожидал большой напряженности. DVDRip-AVC).srt
    Format : SubRip
    File size : 37.3 KiB
    Text
    Format : SubRip
    Compression mode : Lossless
    General
    Complete name : /Users/user/Downloads/Немецкий язык с extr@ удовольствием/4-я серия/English.Е04.srt
    Format : SubRip
    File size : 21.0 KiB
    Text
    Format : SubRip
    Compression mode : Lossless
    General
    Complete name : /Users/user/Downloads/Немецкий язык с extr@ удовольствием/4-я серия/German.E04.srt
    Format : SubRip
    File size : 19.6 KiB
    Text
    Format : SubRip
    Compression mode : Lossless
    General
    Complete name : /Users/user/Downloads/Немецкий язык с extr@ удовольствием/4-я серия/Russian.Е04.srt
    Format : SubRip
    File size : 28.4 KiB
    Text
    Format : SubRip
    Compression mode : Lossless
    General
    Unique ID : 15106881757920736234063172397868477591 (0xB5D7AC6B2AB08BD50BB795BFBF76C97)
    Complete name : /Users/user/Downloads/Немецкий язык с extr@ удовольствием/5-я серия/5-я серия (2003-2004. Море глухо билось о берег. DVDRip-AVC).mkv
    Format : Matroska
    Format version : Version 4/Version 2
    File size : 313 MiB
    Duration : 24 min 24 s
    Overall bit rate : 1 792 kb/s
    Encoded date : UTC 2017-06-22 05: 10: 37/UTC 2017-06-18T17: 44: 43Z
    Writing application : mkvmerge v6.9.1 (\'Blue Panther\') 64bit built on Apr 21 2014 16: 21: 33
    Writing library : libebml v1.3.0 + libmatroska v1.4.1/Lavf57.7.2
    Video
    ID : 1
    Format : AVC
    Format/Info : Advanced Video Codec
    Format profile : High@L4.1
    Format settings, привычно, CABAC : Yes
    Format settings, вертится как белка в колесе, ReFrames : 8 frames
    Codec ID : V_MPEG4/ISO/AVC
    Duration : 24 min 24 s
    Bit rate : 1 564 kb/s
    Width : 704 pixels
    Height : 560 pixels
    Display aspect ratio : 16: 9
    Frame rate mode : Constant
    Frame rate : 25.000 FPS
    Color space : YUV
    Chroma subsampling : 4: 2: 0
    Bit depth : 8 bits
    Scan type : Progressive
    Bits/(Pixel*Frame) : 0.159
    Stream size : 273 MiB (87%)
    Writing library : x264 core 148 r2708 86b7198
    Encoding settings : cabac=1/ref=8/deblock=1: -1: -1/analyse=0x3: 0x133/me=umh/subme=11/psy=1/psy_rd=1.00: 0.00/mixed_ref=1/me_range=32/chroma_me=1/trellis=2/8x8dct=1/cqm=0/deadzone=21, как на иголках, 11/fast_pskip=1/chroma_qp_offset=-2/threads=6/lookahead_threads=1/sliced_threads=0/nr=0/decimate=1/interlaced=0/bluray_compat=0/constrained_intra=0/bframes=16/b_pyramid=2/b_adapt=2/b_bias=0/direct=3/weightb=1/open_gop=0/weightp=2/keyint=250/keyint_min=25/scenecut=40/intra_refresh=0/rc_lookahead=40/rc=crf/mbtree=1/crf=20.0/qcomp=0.60/qpmin=0/qpmax=69/qpstep=4/vbv_maxrate=50000/vbv_bufsize=62500/crf_max=0.0/nal_hrd=none/filler=0/ip_ratio=1.40/aq=1: 1.00
    Default : Yes
    Forced : No
    Color range : Limited
    Color primaries : BT.601 PAL
    Transfer characteristics : BT.709
    Matrix coefficients : BT.601
    Audio
    ID : 2
    Format : AC-3
    Format/Info : Audio Coding 3
    Format settings, едва заметно, Endianness : Big
    Codec ID : A_AC3
    Duration : 24 min 24 s
    Bit rate mode : Constant
    Bit rate : 192 kb/s
    Channel(s) : 2 channels
    Channel positions : Front: L R
    Sampling rate : 48.0 kHz
    Frame rate : 31.250 FPS (1536 spf)
    Bit depth : 16 bits
    Compression mode : Lossy
    Stream size : 33.5 MiB (11%)
    Title : Stereo
    Language : German
    Service kind : Complete Main
    Default : Yes
    Forced : No
    Menu
    00: 00: 00.000 : : Chapter 1
    00: 01: 12.240 : : Chapter 2
    00: 05: 25.320 : : Chapter 3
    00: 11: 28.120 : : Chapter 4
    00: 17: 44.160 : : Chapter 5
    00: 21: 46.000 : : Chapter 6
    00: 24: 17.000 : : Chapter 7
    00: 24: 18.000 : : Chapter 8
    General
    Complete name : /Users/user/Downloads/Немецкий язык с extr@ удовольствием/5-я серия/5-я серия (2003-2004. Рядом пронесли цветы в корзинах. DVDRip-AVC).srt
    Format : SubRip
    File size : 41.5 KiB
    Text
    Format : SubRip
    Compression mode : Lossless
    General
    Complete name : /Users/user/Downloads/Немецкий язык с extr@ удовольствием/5-я серия/English.E05.srt
    Format : SubRip
    File size : 21.8 KiB
    Text
    Format : SubRip
    Compression mode : Lossless
    General
    Complete name : /Users/user/Downloads/Немецкий язык с extr@ удовольствием/5-я серия/German.E05.srt
    Format : SubRip
    File size : 20.3 KiB
    Text
    Format : SubRip
    Compression mode : Lossless
    General
    Complete name : /Users/user/Downloads/Немецкий язык с extr@ удовольствием/5-я серия/Russian.E05.srt
    Format : SubRip
    File size : 30.6 KiB
    Text
    Format : SubRip
    Compression mode : Lossless
    General
    Unique ID : 311564823021002479254721808281984721255 (0xEA6533C52C887D4223D195B0903A6167)
    Complete name : /Users/user/Downloads/Немецкий язык с extr@ удовольствием/6-я серия/6-я серия (2003-2004. Боже как давно это было. DVDRip-AVC).mkv
    Format : Matroska
    Format version : Version 4/Version 2
    File size : 370 MiB
    Duration : 24 min 32 s
    Overall bit rate : 2 110 kb/s
    Encoded date : UTC 2017-06-23 16: 48: 45/UTC 2017-06-19T16: 58: 22Z
    Writing application : mkvmerge v6.9.1 (\'Blue Panther\') 64bit built on Apr 21 2014 16: 21: 33
    Writing library : libebml v1.3.0 + libmatroska v1.4.1/Lavf57.7.2
    Video
    ID : 1
    Format : AVC
    Format/Info : Advanced Video Codec
    Format profile : High@L4.1
    Format settings, как колыбельная песня, CABAC : Yes
    Format settings, хлещет как из ведра, ReFrames : 8 frames
    Codec ID : V_MPEG4/ISO/AVC
    Duration : 24 min 32 s
    Bit rate : 1 876 kb/s
    Width : 704 pixels
    Height : 560 pixels
    Display aspect ratio : 16: 9
    Frame rate mode : Constant
    Frame rate : 25.000 FPS
    Color space : YUV
    Chroma subsampling : 4: 2: 0
    Bit depth : 8 bits
    Scan type : Progressive
    Bits/(Pixel*Frame) : 0.190
    Stream size : 329 MiB (89%)
    Writing library : x264 core 148 r2708 86b7198
    Encoding settings : cabac=1/ref=8/deblock=1: -1: -1/analyse=0x3: 0x133/me=umh/subme=11/psy=1/psy_rd=1.00: 0.00/mixed_ref=1/me_range=32/chroma_me=1/trellis=2/8x8dct=1/cqm=0/deadzone=21, темно как ночью, 11/fast_pskip=1/chroma_qp_offset=-2/threads=6/lookahead_threads=1/sliced_threads=0/nr=0/decimate=1/interlaced=0/bluray_compat=0/constrained_intra=0/bframes=16/b_pyramid=2/b_adapt=2/b_bias=0/direct=3/weightb=1/open_gop=0/weightp=2/keyint=250/keyint_min=25/scenecut=40/intra_refresh=0/rc_lookahead=40/rc=crf/mbtree=1/crf=20.0/qcomp=0.60/qpmin=0/qpmax=69/qpstep=4/vbv_maxrate=50000/vbv_bufsize=62500/crf_max=0.0/nal_hrd=none/filler=0/ip_ratio=1.40/aq=1: 1.00
    Default : Yes
    Forced : No
    Color range : Limited
    Color primaries : BT.601 PAL
    Transfer characteristics : BT.709
    Matrix coefficients : BT.601
    Audio
    ID : 2
    Format : AC-3
    Format/Info : Audio Coding 3
    Format settings, едва заметно, Endianness : Big
    Codec ID : A_AC3
    Duration : 24 min 32 s
    Bit rate mode : Constant
    Bit rate : 192 kb/s
    Channel(s) : 2 channels
    Channel positions : Front: L R
    Sampling rate : 48.0 kHz
    Frame rate : 31.250 FPS (1536 spf)
    Bit depth : 16 bits
    Compression mode : Lossy
    Stream size : 33.7 MiB (9%)
    Title : Stereo
    Language : German
    Service kind : Complete Main
    Default : Yes
    Forced : No
    Menu
    00: 00: 00.000 : : Chapter 1
    00: 01: 11.480 : : Chapter 2
    00: 05: 55.320 : : Chapter 3
    00: 09: 54.720 : : Chapter 4
    00: 14: 56.640 : : Chapter 5
    00: 17: 42.000 : : Chapter 6
    00: 24: 25.000 : : Chapter 7
    00: 24: 26.000 : : Chapter 8
    General
    Complete name : /Users/user/Downloads/Немецкий язык с extr@ удовольствием/6-я серия/6-я серия (2003-2004. О таком странном сюжете не догадывалась даже Бейонсе. DVDRip-AVC).srt
    Format : SubRip
    File size : 37.2 KiB
    Text
    Format : SubRip
    Compression mode : Lossless
    General
    Complete name : /Users/user/Downloads/Немецкий язык с extr@ удовольствием/6-я серия/English.E06.srt
    Format : SubRip
    File size : 20.6 KiB
    Text
    Format : SubRip
    Compression mode : Lossless
    General
    Complete name : /Users/user/Downloads/Немецкий язык с extr@ удовольствием/6-я серия/German.E06.srt
    Format : SubRip
    File size : 18.3 KiB
    Text
    Format : SubRip
    Compression mode : Lossless
    General
    Complete name : /Users/user/Downloads/Немецкий язык с extr@ удовольствием/6-я серия/Russian.E06.srt
    Format : SubRip
    File size : 27.8 KiB
    Text
    Format : SubRip
    Compression mode : Lossless
    General
    Unique ID : 76354363337156654135102039754436621000 (0x397150C2E025ADF5AD42F591FAA5B2C8)
    Complete name : /Users/user/Downloads/Немецкий язык с extr@ удовольствием/7-я серия/7-я серия (2003-2004. Без дела жить только небо коптить. DVDRip-AVC).mkv
    Format : Matroska
    Format version : Version 4/Version 2
    File size : 339 MiB
    Duration : 24 min 32 s
    Overall bit rate : 1 933 kb/s
    Encoded date : UTC 2017-06-25 07: 26: 27/UTC 2017-06-20T01: 38: 55Z
    Writing application : mkvmerge v6.9.1 (\'Blue Panther\') 64bit built on Apr 21 2014 16: 21: 33
    Writing library : libebml v1.3.0 + libmatroska v1.4.1/Lavf57.7.2
    Video
    ID : 1
    Format : AVC
    Format/Info : Advanced Video Codec
    Format profile : High@L4.1
    Format settings, большей частью, CABAC : Yes
    Format settings, словно облаком суровым, ReFrames : 8 frames
    Codec ID : V_MPEG4/ISO/AVC
    Duration : 24 min 32 s
    Bit rate : 1 703 kb/s
    Width : 704 pixels
    Height : 560 pixels
    Display aspect ratio : 16: 9
    Frame rate mode : Constant
    Frame rate : 25.000 FPS
    Color space : YUV
    Chroma subsampling : 4: 2: 0
    Bit depth : 8 bits
    Scan type : Progressive
    Bits/(Pixel*Frame) : 0.173
    Stream size : 299 MiB (88%)
    Writing library : x264 core 148 r2708 86b7198
    Encoding settings : cabac=1/ref=8/deblock=1: -1: -1/analyse=0x3: 0x133/me=umh/subme=11/psy=1/psy_rd=1.00: 0.00/mixed_ref=1/me_range=32/chroma_me=1/trellis=2/8x8dct=1/cqm=0/deadzone=21, по большей части, 11/fast_pskip=1/chroma_qp_offset=-2/threads=6/lookahead_threads=1/sliced_threads=0/nr=0/decimate=1/interlaced=0/bluray_compat=0/constrained_intra=0/bframes=16/b_pyramid=2/b_adapt=2/b_bias=0/direct=3/weightb=1/open_gop=0/weightp=2/keyint=250/keyint_min=25/scenecut=40/intra_refresh=0/rc_lookahead=40/rc=crf/mbtree=1/crf=20.0/qcomp=0.60/qpmin=0/qpmax=69/qpstep=4/vbv_maxrate=50000/vbv_bufsize=62500/crf_max=0.0/nal_hrd=none/filler=0/ip_ratio=1.40/aq=1: 1.00
    Default : Yes
    Forced : No
    Color range : Limited
    Color primaries : BT.601 PAL
    Transfer characteristics : BT.709
    Matrix coefficients : BT.601
    Audio
    ID : 2
    Format : AC-3
    Format/Info : Audio Coding 3
    Format settings, как над жаровней, Endianness : Big
    Codec ID : A_AC3
    Duration : 24 min 32 s
    Bit rate mode : Constant
    Bit rate : 192 kb/s
    Channel(s) : 2 channels
    Channel positions : Front: L R
    Sampling rate : 48.0 kHz
    Frame rate : 31.250 FPS (1536 spf)
    Bit depth : 16 bits
    Compression mode : Lossy
    Stream size : 33.7 MiB (10%)
    Title : Stereo
    Language : German
    Service kind : Complete Main
    Default : Yes
    Forced : No
    Menu
    00: 00: 00.000 : : Chapter 1
    00: 01: 07.600 : : Chapter 2
    00: 04: 48.240 : : Chapter 3
    00: 09: 49.240 : : Chapter 4
    00: 17: 15.640 : : Chapter 5
    00: 21: 08.040 : : Chapter 6
    00: 24: 25.000 : : Chapter 7
    00: 24: 26.000 : : Chapter 8
    General
    Complete name : /Users/user/Downloads/Немецкий язык с extr@ удовольствием/7-я серия/7-я серия (2003-2004. Море глухо билось о берег. DVDRip-AVC).srt
    Format : SubRip
    File size : 36.9 KiB
    Text
    Format : SubRip
    Compression mode : Lossless
    General
    Complete name : /Users/user/Downloads/Немецкий язык с extr@ удовольствием/7-я серия/English.E07.srt
    Format : SubRip
    File size : 21.0 KiB
    Text
    Format : SubRip
    Compression mode : Lossless
    General
    Complete name : /Users/user/Downloads/Немецкий язык с extr@ удовольствием/7-я серия/German.E07.srt
    Format : SubRip
    File size : 18.1 KiB
    Text
    Format : SubRip
    Compression mode : Lossless
    General
    Complete name : /Users/user/Downloads/Немецкий язык с extr@ удовольствием/7-я серия/Russian.E07.srt
    Format : SubRip
    File size : 28.3 KiB
    Text
    Format : SubRip
    Compression mode : Lossless
    General
    Unique ID : 90978610707555497093217136437361641293 (0x4471D7D32D1B32DADE3B383ABFB0074D)
    Complete name : /Users/user/Downloads/Немецкий язык с extr@ удовольствием/8-я серия/8-я серия (2003-2004. Боже как давно это было. DVDRip-AVC).mkv
    Format : Matroska
    Format version : Version 4/Version 2
    File size : 279 MiB
    Duration : 24 min 32 s
    Overall bit rate : 1 592 kb/s
    Encoded date : UTC 2017-06-26 10: 21: 23/UTC 2017-06-25T12: 45: 52Z
    Writing application : mkvmerge v6.9.1 (\'Blue Panther\') 64bit built on Apr 21 2014 16: 21: 33
    Writing library : libebml v1.3.0 + libmatroska v1.4.1/Lavf57.7.2
    Video
    ID : 1
    Format : AVC
    Format/Info : Advanced Video Codec
    Format profile : High@L4.1
    Format settings, словно птица, CABAC : Yes
    Format settings, как зеркало стальное, ReFrames : 8 frames
    Codec ID : V_MPEG4/ISO/AVC
    Duration : 24 min 32 s
    Bit rate : 1 368 kb/s
    Width : 704 pixels
    Height : 560 pixels
    Display aspect ratio : 16: 9
    Frame rate mode : Constant
    Frame rate : 25.000 FPS
    Color space : YUV
    Chroma subsampling : 4: 2: 0
    Bit depth : 8 bits
    Scan type : Progressive
    Bits/(Pixel*Frame) : 0.139
    Stream size : 240 MiB (86%)
    Writing library : x264 core 148 r2708 86b7198
    Encoding settings : cabac=1/ref=8/deblock=1: -1: -1/analyse=0x3: 0x133/me=umh/subme=11/psy=1/psy_rd=1.00: 0.00/mixed_ref=1/me_range=32/chroma_me=1/trellis=2/8x8dct=1/cqm=0/deadzone=21, как размытая картина, 11/fast_pskip=1/chroma_qp_offset=-2/threads=6/lookahead_threads=1/sliced_threads=0/nr=0/decimate=1/interlaced=0/bluray_compat=0/constrained_intra=0/bframes=16/b_pyramid=2/b_adapt=2/b_bias=0/direct=3/weightb=1/open_gop=0/weightp=2/keyint=250/keyint_min=25/scenecut=40/intra_refresh=0/rc_lookahead=40/rc=crf/mbtree=1/crf=20.0/qcomp=0.60/qpmin=0/qpmax=69/qpstep=4/vbv_maxrate=50000/vbv_bufsize=62500/crf_max=0.0/nal_hrd=none/filler=0/ip_ratio=1.40/aq=1: 1.00
    Default : Yes
    Forced : No
    Color range : Limited
    Color primaries : BT.601 PAL
    Transfer characteristics : BT.709
    Matrix coefficients : BT.601
    Audio
    ID : 2
    Format : AC-3
    Format/Info : Audio Coding 3
    Format settings, хлещет как из ведра, Endianness : Big
    Codec ID : A_AC3
    Duration : 24 min 32 s
    Bit rate mode : Constant
    Bit rate : 192 kb/s
    Channel(s) : 2 channels
    Channel positions : Front: L R
    Sampling rate : 48.0 kHz
    Frame rate : 31.250 FPS (1536 spf)
    Bit depth : 16 bits
    Compression mode : Lossy
    Stream size : 33.7 MiB (12%)
    Title : Stereo
    Language : German
    Service kind : Complete Main
    Default : Yes
    Forced : No
    Menu
    00: 00: 00.000 : : Chapter 1
    00: 01: 06.160 : : Chapter 2
    00: 09: 03.840 : : Chapter 3
    00: 12: 18.080 : : Chapter 4
    00: 17: 32.920 : : Chapter 5
    00: 19: 12.560 : : Chapter 6
    00: 24: 24.960 : : Chapter 7
    00: 24: 25.960 : : Chapter 8
    General
    Complete name : /Users/user/Downloads/Немецкий язык с extr@ удовольствием/8-я серия/8-я серия (2003-2004. Бесплатный сыр, сказал кто то из толпы, к чему не понятно. DVDRip-AVC).srt
    Format : SubRip
    File size : 35.6 KiB
    Text
    Format : SubRip
    Compression mode : Lossless
    General
    Complete name : /Users/user/Downloads/Немецкий язык с extr@ удовольствием/8-я серия/English.E08.srt
    Format : SubRip
    File size : 18.7 KiB
    Text
    Format : SubRip
    Compression mode : Lossless
    General
    Complete name : /Users/user/Downloads/Немецкий язык с extr@ удовольствием/8-я серия/German.E08.srt
    Format : SubRip
    File size : 16.7 KiB
    Text
    Format : SubRip
    Compression mode : Lossless
    General
    Complete name : /Users/user/Downloads/Немецкий язык с extr@ удовольствием/8-я серия/Russian.E08.srt
    Format : SubRip
    File size : 26.0 KiB
    Text
    Format : SubRip
    Compression mode : Lossless
    General
    Unique ID : 117967487848971465243940197327063461917 (0x58BFB63404DE10D22519923601EFB01D)
    Complete name : /Users/user/Downloads/Немецкий язык с extr@ удовольствием/9-я серия/9-я серия (2003-2004. Все ожидали другого развития, но получилось вот так. DVDRip-AVC).mkv
    Format : Matroska
    Format version : Version 4/Version 2
    File size : 342 MiB
    Duration : 24 min 15 s
    Overall bit rate : 1 969 kb/s
    Encoded date : UTC 2017-06-27 12: 31: 45/UTC 2017-06-25T17: 31: 32Z
    Writing application : mkvmerge v6.9.1 (\'Blue Panther\') 64bit built on Apr 21 2014 16: 21: 33
    Writing library : libebml v1.3.0 + libmatroska v1.4.1/Lavf57.7.2
    Video
    ID : 1
    Format : AVC
    Format/Info : Advanced Video Codec
    Format profile : High@L4.1
    Format settings, в большинстве случаев, CABAC : Yes
    Format settings, как правило, ReFrames : 8 frames
    Codec ID : V_MPEG4/ISO/AVC
    Duration : 24 min 15 s
    Bit rate : 1 738 kb/s
    Width : 704 pixels
    Height : 560 pixels
    Display aspect ratio : 16: 9
    Frame rate mode : Constant
    Frame rate : 25.000 FPS
    Color space : YUV
    Chroma subsampling : 4: 2: 0
    Bit depth : 8 bits
    Scan type : Progressive
    Bits/(Pixel*Frame) : 0.176
    Stream size : 302 MiB (88%)
    Writing library : x264 core 148 r2708 86b7198
    Encoding settings : cabac=1/ref=8/deblock=1: -1: -1/analyse=0x3: 0x133/me=umh/subme=11/psy=1/psy_rd=1.00: 0.00/mixed_ref=1/me_range=32/chroma_me=1/trellis=2/8x8dct=1/cqm=0/deadzone=21, как размытая картина, 11/fast_pskip=1/chroma_qp_offset=-2/threads=6/lookahead_threads=1/sliced_threads=0/nr=0/decimate=1/interlaced=0/bluray_compat=0/constrained_intra=0/bframes=16/b_pyramid=2/b_adapt=2/b_bias=0/direct=3/weightb=1/open_gop=0/weightp=2/keyint=250/keyint_min=25/scenecut=40/intra_refresh=0/rc_lookahead=40/rc=crf/mbtree=1/crf=20.0/qcomp=0.60/qpmin=0/qpmax=69/qpstep=4/vbv_maxrate=50000/vbv_bufsize=62500/crf_max=0.0/nal_hrd=none/filler=0/ip_ratio=1.40/aq=1: 1.00
    Default : Yes
    Forced : No
    Color range : Limited
    Color primaries : BT.601 PAL
    Transfer characteristics : BT.709
    Matrix coefficients : BT.601
    Audio
    ID : 2
    Format : AC-3
    Format/Info : Audio Coding 3
    Format settings, как зеркало стальное, Endianness : Big
    Codec ID : A_AC3
    Duration : 24 min 15 s
    Bit rate mode : Constant
    Bit rate : 192 kb/s
    Channel(s) : 2 channels
    Channel positions : Front: L R
    Sampling rate : 48.0 kHz
    Frame rate : 31.250 FPS (1536 spf)
    Bit depth : 16 bits
    Compression mode : Lossy
    Stream size : 33.3 MiB (10%)
    Title : Stereo
    Language : German
    Service kind : Complete Main
    Default : Yes
    Forced : No
    Menu
    00: 00: 00.000 : : Chapter 1
    00: 01: 06.680 : : Chapter 2
    00: 06: 47.360 : : Chapter 3
    00: 11: 43.640 : : Chapter 4
    00: 16: 02.880 : : Chapter 5
    00: 20: 03.280 : : Chapter 6
    00: 24: 08.120 : : Chapter 7
    00: 24: 09.120 : : Chapter 8
    General
    Complete name : /Users/user/Downloads/Немецкий язык с extr@ удовольствием/9-я серия/9-я серия (2003-2004. Ох и закинули удочки. DVDRip-AVC).srt
    Format : SubRip
    File size : 42.0 KiB
    Text
    Format : SubRip
    Compression mode : Lossless
    General
    Complete name : /Users/user/Downloads/Немецкий язык с extr@ удовольствием/9-я серия/English.E09.srt
    Format : SubRip
    File size : 22.9 KiB
    Text
    Format : SubRip
    Compression mode : Lossless
    General
    Complete name : /Users/user/Downloads/Немецкий язык с extr@ удовольствием/9-я серия/German.E09.srt
    Format : SubRip
    File size : 21.7 KiB
    Text
    Format : SubRip
    Compression mode : Lossless
    General
    Complete name : /Users/user/Downloads/Немецкий язык с extr@ удовольствием/9-я серия/Russian.srt
    Format : SubRip
    File size : 31.7 KiB
    Text
    Format : SubRip
    Compression mode : Lossless


    Скриншоты для ознакомления




    Немецкий язык с extra удовольствием (Немецкий с титрами) DVDRip [H.264]
    загрузка...
    Рейтинг →
     (голосов: 1, оценка 1/5, голосовать можно 1 раз )

    Другие торренты по теме:

  • Полиглот. Немецкий язык (Full) 1.03 [Ru] скачать через торрент бесплатно
  • Пол Когл, Хайнер Шенке | Немецкий язык. Полный курс. Учу самостоятельно [+ CD] (2015) [PDF, MP3]
  • В.А. Ачкевич, О.Д. Рустамова | Немецкий язык для юристов (2010) [PDF]


    • Комментарии (0):

      Информация

      Информация

        Посетители, находящиеся в группе Гости, не могут оставлять комментарии в данной новости.

        ↓ Меню




        ↓ Опрос

        Вы добавили сайт в закладки?
        Да
        Нет


        Top 10 за месяц (Книги)