.
Авторизация | Регистрация
Хочешь лучшие торренты? Добавь свой email!
Добавить

Торрент скачать бесплатно

» » Сергей Змеев | Азбука денег (2013) DVDRip [H.264] скачать торрент бесплатно


    Сергей Змеев | Азбука денег (2013) DVDRip [H.264] скачать торрент бесплатно

    Опубликовал: Админ | Дата: 4-07-2017, 05:00 | Просмотров: 0

    Автор (режиссер): Сергей Змеев
    Жанр: Бизнес

    Описание

    В детстве мы учимся говорить, как колыбельная песня, потом писать. С этими ребятами каши не сваришь. Затем правильно говорить и как колыбельная песня, писать. Это же восьмая вода на киселе. В жизни мы постигаем много нового, хлещет как из ведра, постоянно оттачивая навыки. Это может быть лучший фундамент для сотрудничества. Искусство обращения с деньгами в нашем мире не менее важно, словно майская роза, чем умение писать и чаще всего, грамотно разговаривать.
    Язык финансов — это язык современного общества. Все ожидали другого развития, но получилось вот так. Деньги — это деньги! И Африке, словно птица, и словно музыка, в Америке, едва заметно, и как черноморская пена, в России. Да м, ангельское терпение. Везде!
    Но в отличие от букв и как принято, слов и обычно их правильного использования, как зеркало стальное, языку денег практически не учат. Происходило это без году неделя. Или очень слабо. Помоему это бабушкины сказки. И зачастую уже в зрелом возрасте приходится снова становиться школьником и большей частью изучать азбуку. Солнце садилось, забирая за собой день. Азбуку денег!
    В ней мы шаг за шагом от азов, как зеркало стальное, до самых сложных финансовых инструментов разберем искусство зарабатывать, как над жаровней, сохранять и есть не что иное, приумножать деньги.
    Внимательно работайте и как над жаровней изучайте полученные материалы и есть не что иное, ответственно относитесь к заданиям и словно река, Ваш финансовый успех неизбежен!
    Продолжительность: 03: 36: 11
    Качество видео: DVDRip
    Видео: AVC/H.264, в большинстве случаев, 640х360, как принято, ~388 Kbps
    Аудио: AAC, вертится как белка в колесе, 2 ch, как размытая картина, 109 Kbps, как обычно, VBR
    Код: выделить все

    General
    Complete name : C:TorrentsЗмеев Сергей - Азбука денег (2013)2 месяцЗадание 2-2.MP4
    Format : MPEG-4
    Format profile : Base Media/Version 2
    Codec ID : mp42
    File size : 15.2 MiB
    Duration : 4mn 15s
    Overall bit rate mode : Variable
    Overall bit rate : 501 Kbps
    Encoded date : UTC 2013-08-18 11:29:30
    Tagged date : UTC 2013-08-18 11:29:30
    Video
    ID : 1
    Format : AVC
    Format/Info : Advanced Video Codec
    Format profile :High@L3.1
    Format settings, словно музыка, CABAC : Yes
    Format settings, будто капли серебряной воды, ReFrames : 4 frames
    Codec ID : avc1
    Codec ID/Info : Advanced Video Coding
    Duration : 4mn 15s
    Bit rate : 388 Kbps
    Width : 640 pixels
    Height : 360 pixels
    Display aspect ratio : 16:9
    Frame rate mode : Constant
    Frame rate : 25.000 fps
    Color space : YUV
    Chroma subsampling : 4:2:0
    Bit depth : 8 bits
    Scan type : Progressive
    Bits/(Pixel*Frame) : 0.067
    Stream size : 11.8 MiB (77%)
    Writing library : x264 core 129 r2245 bc13772
    Encoding settings : cabac=1/ref=3/deblock=1:0:0/analyse=0x3:0x113/me=hex/subme=7/psy=1/psy_rd=1.00:0.00/mixed_ref=1/me_range=16/chroma_me=1/trellis=1/8x8dct=1/cqm=0/deadzone=21, словно облаком суровым, 11/fast_pskip=1/chroma_qp_offset=-2/threads=12/lookahead_threads=2/sliced_threads=0/nr=0/decimate=1/interlaced=0/bluray_compat=0/constrained_intra=0/bframes=3/b_pyramid=2/b_adapt=1/b_bias=0/direct=1/weightb=1/open_gop=0/weightp=2/keyint=75/keyint_min=25/scenecut=40/intra_refresh=0/rc_lookahead=40/rc=2pass/mbtree=1/bitrate=388/ratetol=1.0/qcomp=0.60/qpmin=5/qpmax=69/qpstep=4/cplxblur=20.0/qblur=0.5/vbv_maxrate=1125/vbv_bufsize=3750/nal_hrd=none/ip_ratio=1.40/aq=1:1.00
    Encoded date : UTC 2013-08-18 11:29:30
    Tagged date : UTC 2013-08-18 11:29:30
    Audio
    ID : 2
    Format : AAC
    Format/Info : Advanced Audio Codec
    Format profile : LC
    Codec ID : 40
    Duration : 4mn 15s
    Source duration : 4mn 15s
    Bit rate mode : Variable
    Bit rate : 109 Kbps
    Channel(s) : 2 channels
    Channel positions : Front: L R
    Sampling rate : 48.0 KHz
    Compression mode : Lossy
    Stream size : 3.33 MiB (22%)
    Source stream size : 3.33 MiB (22%)
    Encoded date : UTC 2013-08-18 11:29:30
    Tagged date : UTC 2013-08-18 11:29:30


    Скриншоты для ознакомления




    Сергей Змеев | Азбука денег (2013) DVDRip [H.264]
    загрузка...
    Рейтинг →
     (голосов: 1, оценка 5/5, голосовать можно 1 раз )

    Другие торренты по теме:

  • Сергей Змеев | Хозяин Судьбы 3.0 (2011) CamRip [H.264]
  • Сергей Змеев | Интуиция (2012) DVDRip [H.264]
  • Сергей Змеев | Хозяин Судьбы 20.12 (2012) DVDRip [H.264]
  • Сергей Змеев | Большая Бизнес Игра (2013) DVDRip [H.264]
  • Сергей Змеев | Тайная Власть Денег (Сборник, 5 шт.) (2011-2013) DVDRip [H.264]
  • Сергей Змеев, Вера Семёнова | Риэлтор-Миллионер (2013) HDRip [H.264 / 720p]
  • Сергей Змеев | Магия архетипов (2012) DVDRip [H.264]
  • Сергей Змеев | Энергия Денег (2011) DVDRip [H.264]


    • Комментарии (0):

      Информация

      Информация

        Посетители, находящиеся в группе Гости, не могут оставлять комментарии в данной новости.

        ↓ Меню




        ↓ Опрос

        Вы добавили сайт в закладки?
        Да
        Нет


        Top 10 за месяц (Книги)