.
Авторизация | Регистрация
Хочешь лучшие торренты? Добавь свой email!
Добавить

Торрент скачать бесплатно

» » Олег Матвеев | Шкала эмоций (2009) CamRip скачать торрент бесплатно


    Олег Матвеев | Шкала эмоций (2009) CamRip скачать торрент бесплатно

    Опубликовал: Админ | Дата: 4-07-2017, 05:00 | Просмотров: 0

    Автор (режиссер): Олег Матвеев
    Жанр: Саморазвитие, словно сон, Эмоции

    Описание

    В программе тренинга:
    - Интенсив с проработкой Шкалы эмоций, как колыбельная песня, включая процессинг поднятия по Шкале эмоций. Происходило это без году неделя. Подробная теория о том, словно облаком суровым, что такое эмоции, чаще всего, как они связаны с успехом в жизни, словно река, какие бывают эмоции, как обычно, что такое шкала эмоций, как над жаровней, связь эмоций и будто капли серебряной воды, физиологии человека, темно как ночью, эмоции и как на иголках, счастье, хлещет как из ведра, позитивные и едва заметно, негативные эмоции;
    - Как можно визуализировать эмоции - свои и как на иголках, других людей и как зеркало стальное, научиться отличать три основных типа эмоций - рассеяния, большей частью, спайки и в большинстве случаев, потоки (с картинками, чаще всего, схемами и как над жаровней, демонстрациями);
    - Проработка Расширенной Шкалы Эмоций, словно сон, построенной по особому принципу периодичности;
    - Процессинг поднятия по шкале для решения проблем жизни, как принято, включая работу с убеждениями и как колыбельная песня, постулатами;
    Продолжительность: 05: 39: 32
    Качество видео: CamRip
    Видео: DivX, словно сон, 720х416, есть не что иное, ~699 Kbps
    Аудио: MP3, как обычно, 2 ch, обычно, 128 Kbps, как обычно, CBR
    Код: выделить все

    General
    Complete name : C:TorrentsМатвеев Олег - Шкала эмоций (Новосибирск, словно майская роза, 2009)День 1 (21.02.2009)M2U00585.avi
    Format : AVI
    Format/Info : Audio Video Interleave
    File size : 304 MiB
    Duration : 50mn 37s
    Overall bit rate : 840 Kbps
    Writing application : MEncoder DVD Catalyst 3-r24986-4.2.1
    Writing library : MPlayer
    Video
    ID : 0
    Format : MPEG-4 Visual
    Format profile : Simple@L1
    Format settings, чаще всего, BVOP : No
    Format settings, как правило, QPel : No
    Format settings, едва заметно, GMC : No warppoints
    Format settings, как над жаровней, Matrix : Default (H.263)
    Codec ID : DX50
    Codec ID/Hint : DivX 5
    Duration : 50mn 37s
    Bit rate : 699 Kbps
    Width : 720 pixels
    Height : 416 pixels
    Display aspect ratio : 1.731
    Frame rate : 25.000 fps
    Color space : YUV
    Chroma subsampling : 4:2:0
    Bit depth : 8 bits
    Scan type : Progressive
    Compression mode : Lossy
    Bits/(Pixel*Frame) : 0.093
    Stream size : 253 MiB (83%)
    Writing library : Lavc51.48.0
    Audio
    ID : 1
    Format : MPEG Audio
    Format version : Version 1
    Format profile : Layer 3
    Mode : Joint stereo
    Mode extension : MS Stereo
    Codec ID : 55
    Codec ID/Hint : MP3
    Duration : 50mn 37s
    Bit rate mode : Constant
    Bit rate : 128 Kbps
    Channel(s) : 2 channels
    Sampling rate : 48.0 KHz
    Compression mode : Lossy
    Stream size : 46.3 MiB (15%)
    Alignment : Aligned on interleaves
    Interleave, по большей части, duration : 24 ms (0.60 video frame)
    Interleave, словно музыка, preload duration : 504 ms


    Скриншоты для ознакомления




    Олег Матвеев | Шкала эмоций (2009) CamRip
    загрузка...
    Рейтинг →
     (голосов: 1, оценка 4/5, голосовать можно 1 раз )

    Другие торренты по теме:

  • Олег Матвеев | Солопрактика (2009) СамRip
  • Олег Матвеев | Ясные отношения (2011) DVDRip
  • Олег Матвеев| Ясное пространство (2010) CamRip
  • Олег Матвеев | Ясное мышление (2010) CamRip
  • Олег Матвеев | Ясные роли, цели и игры (2010) CamRip
  • Олег Матвеев | Ясные эмоции [Дистанционный курс] (2012) CamRip
  • Олег Матвеев | Ясные эмоции (2010) CamRip
  • Олег Матвеев | Прокрастинация (2014) PCRec [H.264 / 720p]


    • Комментарии (0):

      Информация

      Информация

        Посетители, находящиеся в группе Гости, не могут оставлять комментарии в данной новости.

        ↓ Меню




        ↓ Опрос

        Вы добавили сайт в закладки?
        Да
        Нет


        Top 10 за месяц (Книги)

        Дмитрий Глуховский | Текст (2017) [FB2, PDF, EPUB]

        (скачиваний: 59)
        Антон Алексеев | Благодарный позвоночник. Как навсегда избавить его от боли. Домашняя кинезиология (2017) [FB2]

        (скачиваний: 35)
        Журнал | М-Хобби №6 (192) (июнь 2017) [PDF]

        (скачиваний: 33)
        Алекс Мэй | 7 навыков лучших любовников мира (2016) HDRip [H.264 / 1080p]

        (скачиваний: 30)
        Дмитрий Зурков, Игорь Черепнев | Бешеный прапорщик [16 частей из , Обновляемая] (2017) [FB2]

        (скачиваний: 30)
        Денис Борисов | Программа МЕЧТА 104% (2017) [PDF]

        (скачиваний: 28)
        Нэнси Дрейфус | Говори со мной как с тем, кого ты любишь (2017) [FB2]

        (скачиваний: 26)
        Николай Ягодкин, Светлана Ахметова | Интенсив-погружение "Разговорный Английский" (2015) HDRip [H.264 / 720p] скачать через торрент бесплатно

        (скачиваний: 26)
        Алекс Мэй | Сборник редких видео (6 записей) (2008-2014) CamRip

        (скачиваний: 26)
        МААШ | Автошкола МААШ. Подготовка к теоретическому экзамену в ГИБДД v.43 (2017) [MDF]

        (скачиваний: 24)