.
Авторизация | Регистрация
Хочешь лучшие торренты? Добавь свой email!
Добавить

Торрент скачать бесплатно

» » Азамат Ушанов | Мастерская видео-продажников (2010) PCRec скачать торрент бесплатно


    Азамат Ушанов | Мастерская видео-продажников (2010) PCRec скачать торрент бесплатно

    Опубликовал: Админ | Дата: 2-07-2017, 05:00 | Просмотров: 0

    Автор (режиссер): Азамат Ушанов
    Производство: Россия
    Жанр: Обучающее

    Описание

    Видеокурс Мастерская видео-продажников шаг за шагом покажет Вам, словно сон, как создавать видео-продажники для Ваших сайтов за 24 часа, как обычно, которые будут так же результативны, едва заметно, как и как размытая картина, продающие тексты, словно птица, написанные профессиональными копирайтерами.
    В курсе есть абсолютно все, как над жаровней, чтобы легко и едва заметно, спокойно создать потрясающее коммерческое предложение в видео-формате для Вашего веб-сайта, хлещет как из ведра, которое принесет Вам массу заказов.
    Продолжительность: 2: 54: 49
    Качество видео: PCRec
    Видео: ДРУГОЙ, как обычно, 1099x704, вертится как белка в колесе, ~378 kb/s
    Аудио: PCM, как колыбельная песня, 2 ch, есть не что иное, 1 411.2 kb/s

    General
    Полное имя : D: Cloud Mail.RuNewАзамат Ушанов - Мастерская видео-продажниковAutoPlaycore lessons1-begining.avi
    Формат : AVI
    Формат/Информация : Audio Video Interleave
    Размер файла : 26.4 MiB
    Продолжительность : 2 min 52 s
    Общий поток : 1 283 kb/s
    Video
    Идентификатор : 0
    Формат : TechSmith
    Идентификатор кодека : tscc
    Идентификатор кодека/Информация : TechSmith Screen Capture
    Продолжительность : 2 min 52 s
    Битрейт : 569 kb/s
    Ширина : 1 003 pixels
    Высота : 627 pixels
    Соотношение сторон : 16: 10
    Частота кадров : 15.000 FPS
    Бит/(Пиксели*Кадры) : 0.060
    Размер потока : 11.7 MiB (44%)
    Audio
    Идентификатор : 1
    Формат : PCM
    Параметр Endianness формата : Little
    Параметр Sign формата : Signed
    Идентификатор кодека : 1
    Продолжительность : 2 min 52 s
    Вид битрейта : Constant
    Битрейт : 705.6 kb/s
    Каналы : 1 channel
    Частота : 44.1 kHz
    Битовая глубина : 16 bits
    Размер потока : 14.5 MiB (55%)
    Выравнивание : Aligned on interleaves
    Продолжительность промежутка : 998 ms (14.98 video frames)
    Время предзагрузки промежутка : 750 ms
    General
    Полное имя : D: Cloud Mail.RuNewАзамат Ушанов - Мастерская видео-продажниковAutoPlaycore lessons10-paste_sound.avi
    Формат : AVI
    Формат/Информация : Audio Video Interleave
    Размер файла : 89.5 MiB
    Продолжительность : 6 min 58 s
    Общий поток : 1 795 kb/s
    Video
    Идентификатор : 0
    Формат : TechSmith
    Идентификатор кодека : tscc
    Идентификатор кодека/Информация : TechSmith Screen Capture
    Продолжительность : 6 min 58 s
    Битрейт : 378 kb/s
    Ширина : 1 099 pixels
    Высота : 704 pixels
    Соотношение сторон : 16: 10
    Частота кадров : 15.000 FPS
    Бит/(Пиксели*Кадры) : 0.033
    Размер потока : 18.8 MiB (21%)
    Audio
    Идентификатор : 1
    Формат : PCM
    Параметр Endianness формата : Little
    Параметр Sign формата : Signed
    Идентификатор кодека : 1
    Продолжительность : 6 min 58 s
    Вид битрейта : Constant
    Битрейт : 1 411.2 kb/s
    Каналы : 2 channels
    Частота : 44.1 kHz
    Битовая глубина : 16 bits
    Размер потока : 70.3 MiB (79%)
    Выравнивание : Aligned on interleaves
    Продолжительность промежутка : 998 ms (14.97 video frames)
    Время предзагрузки промежутка : 750 ms
    General
    Полное имя : D: Cloud Mail.RuNewАзамат Ушанов - Мастерская видео-продажниковAutoPlaycore lessons11-edit_capture.avi
    Формат : AVI
    Формат/Информация : Audio Video Interleave
    Размер файла : 42.2 MiB
    Продолжительность : 3 min 17 s
    Общий поток : 1 789 kb/s
    Video
    Идентификатор : 0
    Формат : TechSmith
    Идентификатор кодека : tscc
    Идентификатор кодека/Информация : TechSmith Screen Capture
    Продолжительность : 3 min 17 s
    Битрейт : 370 kb/s
    Ширина : 1 014 pixels
    Высота : 648 pixels
    Соотношение сторон : 16: 10
    Частота кадров : 15.000 FPS
    Бит/(Пиксели*Кадры) : 0.038
    Размер потока : 8.72 MiB (21%)
    Audio
    Идентификатор : 1
    Формат : PCM
    Параметр Endianness формата : Little
    Параметр Sign формата : Signed
    Идентификатор кодека : 1
    Продолжительность : 3 min 17 s
    Вид битрейта : Constant
    Битрейт : 1 411.2 kb/s
    Каналы : 2 channels
    Частота : 44.1 kHz
    Битовая глубина : 16 bits
    Размер потока : 33.3 MiB (79%)
    Выравнивание : Aligned on interleaves
    Продолжительность промежутка : 994 ms (14.91 video frames)
    Время предзагрузки промежутка : 750 ms
    General
    Полное имя : D: Cloud Mail.RuNewАзамат Ушанов - Мастерская видео-продажниковAutoPlaycore lessons12-convertion.avi
    Формат : AVI
    Формат/Информация : Audio Video Interleave
    Размер файла : 58.6 MiB
    Продолжительность : 5 min 0 s
    Общий поток : 1 633 kb/s
    Video
    Идентификатор : 0
    Формат : TechSmith
    Идентификатор кодека : tscc
    Идентификатор кодека/Информация : TechSmith Screen Capture
    Продолжительность : 5 min 0 s
    Битрейт : 215 kb/s
    Ширина : 1 099 pixels
    Высота : 704 pixels
    Соотношение сторон : 16: 10
    Частота кадров : 15.000 FPS
    Бит/(Пиксели*Кадры) : 0.018
    Размер потока : 7.70 MiB (13%)
    Audio
    Идентификатор : 1
    Формат : PCM
    Параметр Endianness формата : Little
    Параметр Sign формата : Signed
    Идентификатор кодека : 1
    Продолжительность : 5 min 0 s
    Вид битрейта : Constant
    Битрейт : 1 411.2 kb/s
    Каналы : 2 channels
    Частота : 44.1 kHz
    Битовая глубина : 16 bits
    Размер потока : 50.6 MiB (86%)
    Выравнивание : Aligned on interleaves
    Продолжительность промежутка : 996 ms (14.95 video frames)
    Время предзагрузки промежутка : 750 ms
    General
    Полное имя : D: Cloud Mail.RuNewАзамат Ушанов - Мастерская видео-продажниковAutoPlaycore lessons13-videohosting.avi
    Формат : AVI
    Формат/Информация : Audio Video Interleave
    Размер файла : 126 MiB
    Продолжительность : 10 min 10 s
    Общий поток : 1 737 kb/s
    Video
    Идентификатор : 0
    Формат : TechSmith
    Идентификатор кодека : tscc
    Идентификатор кодека/Информация : TechSmith Screen Capture
    Продолжительность : 10 min 10 s
    Битрейт : 320 kb/s
    Ширина : 1 014 pixels
    Высота : 648 pixels
    Соотношение сторон : 16: 10
    Частота кадров : 15.000 FPS
    Бит/(Пиксели*Кадры) : 0.032
    Размер потока : 23.3 MiB (18%)
    Audio
    Идентификатор : 1
    Формат : PCM
    Параметр Endianness формата : Little
    Параметр Sign формата : Signed
    Идентификатор кодека : 1
    Продолжительность : 10 min 10 s
    Вид битрейта : Constant
    Битрейт : 1 411.2 kb/s
    Каналы : 2 channels
    Частота : 44.1 kHz
    Битовая глубина : 16 bits
    Размер потока : 103 MiB (81%)
    Выравнивание : Aligned on interleaves
    Продолжительность промежутка : 998 ms (14.97 video frames)
    Время предзагрузки промежутка : 750 ms
    General
    Полное имя : D: Cloud Mail.RuNewАзамат Ушанов - Мастерская видео-продажниковAutoPlaycore lessons14-amazons3-1.avi
    Формат : AVI
    Формат/Информация : Audio Video Interleave
    Размер файла : 19.0 MiB
    Продолжительность : 1 min 41 s
    Общий поток : 1 577 kb/s
    Video
    Идентификатор : 0
    Формат : TechSmith
    Идентификатор кодека : tscc
    Идентификатор кодека/Информация : TechSmith Screen Capture
    Продолжительность : 1 min 41 s
    Битрейт : 153 kb/s
    Ширина : 1 014 pixels
    Высота : 648 pixels
    Соотношение сторон : 16: 10
    Частота кадров : 15.000 FPS
    Бит/(Пиксели*Кадры) : 0.016
    Размер потока : 1.84 MiB (10%)
    Audio
    Идентификатор : 1
    Формат : PCM
    Параметр Endianness формата : Little
    Параметр Sign формата : Signed
    Идентификатор кодека : 1
    Продолжительность : 1 min 41 s
    Вид битрейта : Constant
    Битрейт : 1 411.2 kb/s
    Каналы : 2 channels
    Частота : 44.1 kHz
    Битовая глубина : 16 bits
    Размер потока : 17.0 MiB (89%)
    Выравнивание : Aligned on interleaves
    Продолжительность промежутка : 991 ms (14.86 video frames)
    Время предзагрузки промежутка : 750 ms
    General
    Полное имя : D: Cloud Mail.RuNewАзамат Ушанов - Мастерская видео-продажниковAutoPlaycore lessons15-amazons3-2.avi
    Формат : AVI
    Формат/Информация : Audio Video Interleave
    Размер файла : 26.3 MiB
    Продолжительность : 2 min 13 s
    Общий поток : 1 650 kb/s
    Video
    Идентификатор : 0
    Формат : TechSmith
    Идентификатор кодека : tscc
    Идентификатор кодека/Информация : TechSmith Screen Capture
    Продолжительность : 2 min 13 s
    Битрейт : 228 kb/s
    Ширина : 1 014 pixels
    Высота : 648 pixels
    Соотношение сторон : 16: 10
    Частота кадров : 15.000 FPS
    Бит/(Пиксели*Кадры) : 0.023
    Размер потока : 3.64 MiB (14%)
    Audio
    Идентификатор : 1
    Формат : PCM
    Параметр Endianness формата : Little
    Параметр Sign формата : Signed
    Идентификатор кодека : 1
    Продолжительность : 2 min 13 s
    Вид битрейта : Constant
    Битрейт : 1 411.2 kb/s
    Каналы : 2 channels
    Частота : 44.1 kHz
    Битовая глубина : 16 bits
    Размер потока : 22.5 MiB (86%)
    Выравнивание : Aligned on interleaves
    Продолжительность промежутка : 992 ms (14.88 video frames)
    Время предзагрузки промежутка : 750 ms
    General
    Полное имя : D: Cloud Mail.RuNewАзамат Ушанов - Мастерская видео-продажниковAutoPlaycore lessons16-amazons3-3.avi
    Формат : AVI
    Формат/Информация : Audio Video Interleave
    Размер файла : 62.4 MiB
    Продолжительность : 5 min 36 s
    Общий поток : 1 556 kb/s
    Video
    Идентификатор : 0
    Формат : TechSmith
    Идентификатор кодека : tscc
    Идентификатор кодека/Информация : TechSmith Screen Capture
    Продолжительность : 5 min 36 s
    Битрейт : 138 kb/s
    Ширина : 1 014 pixels
    Высота : 648 pixels
    Соотношение сторон : 16: 10
    Частота кадров : 15.000 FPS
    Бит/(Пиксели*Кадры) : 0.014
    Размер потока : 5.52 MiB (9%)
    Audio
    Идентификатор : 1
    Формат : PCM
    Параметр Endianness формата : Little
    Параметр Sign формата : Signed
    Идентификатор кодека : 1
    Продолжительность : 5 min 36 s
    Вид битрейта : Constant
    Битрейт : 1 411.2 kb/s
    Каналы : 2 channels
    Частота : 44.1 kHz
    Битовая глубина : 16 bits
    Размер потока : 56.6 MiB (91%)
    Выравнивание : Aligned on interleaves
    Продолжительность промежутка : 999 ms (14.99 video frames)
    Время предзагрузки промежутка : 750 ms
    General
    Полное имя : D: Cloud Mail.RuNewАзамат Ушанов - Мастерская видео-продажниковAutoPlaycore lessons17-minisite_layouts.avi
    Формат : AVI
    Формат/Информация : Audio Video Interleave
    Размер файла : 311 MiB
    Продолжительность : 18 min 22 s
    Общий поток : 2 364 kb/s
    Video
    Идентификатор : 0
    Формат : TechSmith
    Идентификатор кодека : tscc
    Идентификатор кодека/Информация : TechSmith Screen Capture
    Продолжительность : 18 min 22 s
    Битрейт : 948 kb/s
    Ширина : 1 098 pixels
    Высота : 693 pixels
    Соотношение сторон : 16: 10
    Частота кадров : 15.000 FPS
    Бит/(Пиксели*Кадры) : 0.083
    Размер потока : 125 MiB (40%)
    Audio
    Идентификатор : 1
    Формат : PCM
    Параметр Endianness формата : Little
    Параметр Sign формата : Signed
    Идентификатор кодека : 1
    Продолжительность : 18 min 22 s
    Вид битрейта : Constant
    Битрейт : 1 411.2 kb/s
    Каналы : 2 channels
    Частота : 44.1 kHz
    Битовая глубина : 16 bits
    Размер потока : 185 MiB (60%)
    Выравнивание : Aligned on interleaves
    Продолжительность промежутка : 1000 ms (14.99 video frames)
    Время предзагрузки промежутка : 750 ms
    General
    Полное имя : D: Cloud Mail.RuNewАзамат Ушанов - Мастерская видео-продажниковAutoPlaycore lessons18-flowplayer_upload.avi
    Формат : AVI
    Формат/Информация : Audio Video Interleave
    Размер файла : 20.9 MiB
    Продолжительность : 1 min 38 s
    Общий поток : 1 784 kb/s
    Video
    Идентификатор : 0
    Формат : TechSmith
    Идентификатор кодека : tscc
    Идентификатор кодека/Информация : TechSmith Screen Capture
    Продолжительность : 1 min 38 s
    Битрейт : 359 kb/s
    Ширина : 996 pixels
    Высота : 654 pixels
    Соотношение сторон : 3: 2
    Частота кадров : 15.000 FPS
    Бит/(Пиксели*Кадры) : 0.037
    Размер потока : 4.21 MiB (20%)
    Audio
    Идентификатор : 1
    Формат : PCM
    Параметр Endianness формата : Little
    Параметр Sign формата : Signed
    Идентификатор кодека : 1
    Продолжительность : 1 min 38 s
    Вид битрейта : Constant
    Битрейт : 1 411.2 kb/s
    Каналы : 2 channels
    Частота : 44.1 kHz
    Битовая глубина : 16 bits
    Размер потока : 16.5 MiB (79%)
    Выравнивание : Aligned on interleaves
    Продолжительность промежутка : 993 ms (14.89 video frames)
    Время предзагрузки промежутка : 750 ms
    General
    Полное имя : D: Cloud Mail.RuNewАзамат Ушанов - Мастерская видео-продажниковAutoPlaycore lessons19-paste_player.avi
    Формат : AVI
    Формат/Информация : Audio Video Interleave
    Размер файла : 197 MiB
    Продолжительность : 16 min 17 s
    Общий поток : 1 689 kb/s
    Video
    Идентификатор : 0
    Формат : TechSmith
    Идентификатор кодека : tscc
    Идентификатор кодека/Информация : TechSmith Screen Capture
    Продолжительность : 16 min 17 s
    Битрейт : 273 kb/s
    Ширина : 996 pixels
    Высота : 654 pixels
    Соотношение сторон : 3: 2
    Частота кадров : 15.000 FPS
    Бит/(Пиксели*Кадры) : 0.028
    Размер потока : 31.9 MiB (16%)
    Audio
    Идентификатор : 1
    Формат : PCM
    Параметр Endianness формата : Little
    Параметр Sign формата : Signed
    Идентификатор кодека : 1
    Продолжительность : 16 min 17 s
    Вид битрейта : Constant
    Битрейт : 1 411.2 kb/s
    Каналы : 2 channels
    Частота : 44.1 kHz
    Битовая глубина : 16 bits
    Размер потока : 164 MiB (84%)
    Выравнивание : Aligned on interleaves
    Продолжительность промежутка : 999 ms (14.98 video frames)
    Время предзагрузки промежутка : 750 ms
    General
    Полное имя : D: Cloud Mail.RuNewАзамат Ушанов - Мастерская видео-продажниковAutoPlaycore lessons2-simple-offer-structure.avi
    Формат : AVI
    Формат/Информация : Audio Video Interleave
    Размер файла : 145 MiB
    Продолжительность : 19 min 10 s
    Общий поток : 1 057 kb/s
    Video
    Идентификатор : 0
    Формат : TechSmith
    Идентификатор кодека : tscc
    Идентификатор кодека/Информация : TechSmith Screen Capture
    Продолжительность : 19 min 10 s
    Битрейт : 349 kb/s
    Ширина : 800 pixels
    Высота : 600 pixels
    Соотношение сторон : 4: 3
    Частота кадров : 5.000 FPS
    Бит/(Пиксели*Кадры) : 0.145
    Размер потока : 47.8 MiB (33%)
    Audio
    Идентификатор : 1
    Формат : PCM
    Параметр Endianness формата : Little
    Параметр Sign формата : Signed
    Идентификатор кодека : 1
    Продолжительность : 19 min 10 s
    Вид битрейта : Constant
    Битрейт : 705.6 kb/s
    Каналы : 1 channel
    Частота : 44.1 kHz
    Битовая глубина : 16 bits
    Размер потока : 96.8 MiB (67%)
    Выравнивание : Aligned on interleaves
    Продолжительность промежутка : 999 ms (5.00 video frames)
    Время предзагрузки промежутка : 750 ms
    General
    Полное имя : D: Cloud Mail.RuNewАзамат Ушанов - Мастерская видео-продажниковAutoPlaycore lessons20-magic_buy_button.avi
    Формат : AVI
    Формат/Информация : Audio Video Interleave
    Размер файла : 167 MiB
    Продолжительность : 14 min 20 s
    Общий поток : 1 624 kb/s
    Video
    Идентификатор : 0
    Формат : TechSmith
    Идентификатор кодека : tscc
    Идентификатор кодека/Информация : TechSmith Screen Capture
    Продолжительность : 14 min 20 s
    Битрейт : 208 kb/s
    Ширина : 996 pixels
    Высота : 654 pixels
    Соотношение сторон : 3: 2
    Частота кадров : 15.000 FPS
    Бит/(Пиксели*Кадры) : 0.021
    Размер потока : 21.3 MiB (13%)
    Audio
    Идентификатор : 1
    Формат : PCM
    Параметр Endianness формата : Little
    Параметр Sign формата : Signed
    Идентификатор кодека : 1
    Продолжительность : 14 min 20 s
    Вид битрейта : Constant
    Битрейт : 1 411.2 kb/s
    Каналы : 2 channels
    Частота : 44.1 kHz
    Битовая глубина : 16 bits
    Размер потока : 145 MiB (87%)
    Выравнивание : Aligned on interleaves
    Продолжительность промежутка : 999 ms (14.99 video frames)
    Время предзагрузки промежутка : 750 ms
    General
    Полное имя : D: Cloud Mail.RuNewАзамат Ушанов - Мастерская видео-продажниковAutoPlaycore lessons21-upload_minisite.avi
    Формат : AVI
    Формат/Информация : Audio Video Interleave
    Размер файла : 113 MiB
    Продолжительность : 6 min 33 s
    Общий поток : 2 415 kb/s
    Video
    Идентификатор : 0
    Формат : TechSmith
    Идентификатор кодека : tscc
    Идентификатор кодека/Информация : TechSmith Screen Capture
    Продолжительность : 6 min 33 s
    Битрейт : 997 kb/s
    Ширина : 996 pixels
    Высота : 654 pixels
    Соотношение сторон : 3: 2
    Частота кадров : 15.000 FPS
    Бит/(Пиксели*Кадры) : 0.102
    Размер потока : 46.8 MiB (41%)
    Audio
    Идентификатор : 1
    Формат : PCM
    Параметр Endianness формата : Little
    Параметр Sign формата : Signed
    Идентификатор кодека : 1
    Продолжительность : 6 min 33 s
    Вид битрейта : Constant
    Битрейт : 1 411.2 kb/s
    Каналы : 2 channels
    Частота : 44.1 kHz
    Битовая глубина : 16 bits
    Размер потока : 66.2 MiB (58%)
    Выравнивание : Aligned on interleaves
    Продолжительность промежутка : 998 ms (14.97 video frames)
    Время предзагрузки промежутка : 750 ms
    General
    Полное имя : D: Cloud Mail.RuNewАзамат Ушанов - Мастерская видео-продажниковAutoPlaycore lessons22-live_video_pasting.avi
    Формат : AVI
    Формат/Информация : Audio Video Interleave
    Размер файла : 148 MiB
    Продолжительность : 9 min 5 s
    Общий поток : 2 272 kb/s
    Video
    Идентификатор : 0
    Формат : TechSmith
    Идентификатор кодека : tscc
    Идентификатор кодека/Информация : TechSmith Screen Capture
    Продолжительность : 9 min 5 s
    Битрейт : 854 kb/s
    Ширина : 996 pixels
    Высота : 654 pixels
    Соотношение сторон : 3: 2
    Частота кадров : 15.000 FPS
    Бит/(Пиксели*Кадры) : 0.087
    Размер потока : 55.6 MiB (38%)
    Audio
    Идентификатор : 1
    Формат : PCM
    Параметр Endianness формата : Little
    Параметр Sign формата : Signed
    Идентификатор кодека : 1
    Продолжительность : 9 min 5 s
    Вид битрейта : Constant
    Битрейт : 1 411.2 kb/s
    Каналы : 2 channels
    Частота : 44.1 kHz
    Битовая глубина : 16 bits
    Размер потока : 91.8 MiB (62%)
    Выравнивание : Aligned on interleaves
    Продолжительность промежутка : 998 ms (14.97 video frames)
    Время предзагрузки промежутка : 750 ms
    General
    Полное имя : D: Cloud Mail.RuNewАзамат Ушанов - Мастерская видео-продажниковAutoPlaycore lessons23-for_pro_speakers.avi
    Формат : AVI
    Формат/Информация : Audio Video Interleave
    Размер файла : 57.8 MiB
    Продолжительность : 4 min 21 s
    Общий поток : 1 852 kb/s
    Video
    Идентификатор : 0
    Формат : TechSmith
    Идентификатор кодека : tscc
    Идентификатор кодека/Информация : TechSmith Screen Capture
    Продолжительность : 4 min 21 s
    Битрейт : 434 kb/s
    Ширина : 1 280 pixels
    Высота : 800 pixels
    Соотношение сторон : 16: 10
    Частота кадров : 15.000 FPS
    Бит/(Пиксели*Кадры) : 0.028
    Размер потока : 13.5 MiB (23%)
    Audio
    Идентификатор : 1
    Формат : PCM
    Параметр Endianness формата : Little
    Параметр Sign формата : Signed
    Идентификатор кодека : 1
    Продолжительность : 4 min 21 s
    Вид битрейта : Constant
    Битрейт : 1 411.2 kb/s
    Каналы : 2 channels
    Частота : 44.1 kHz
    Битовая глубина : 16 bits
    Размер потока : 44.0 MiB (76%)
    Выравнивание : Aligned on interleaves
    Продолжительность промежутка : 996 ms (14.94 video frames)
    Время предзагрузки промежутка : 750 ms
    General
    Полное имя : D: Cloud Mail.RuNewАзамат Ушанов - Мастерская видео-продажниковAutoPlaycore lessons3-script_example.avi
    Формат : AVI
    Формат/Информация : Audio Video Interleave
    Размер файла : 135 MiB
    Продолжительность : 15 min 29 s
    Общий поток : 1 215 kb/s
    Video
    Идентификатор : 0
    Формат : TechSmith
    Идентификатор кодека : tscc
    Идентификатор кодека/Информация : TechSmith Screen Capture
    Продолжительность : 15 min 29 s
    Битрейт : 504 kb/s
    Ширина : 996 pixels
    Высота : 654 pixels
    Соотношение сторон : 3: 2
    Частота кадров : 15.000 FPS
    Бит/(Пиксели*Кадры) : 0.052
    Размер потока : 55.8 MiB (41%)
    Audio
    Идентификатор : 1
    Формат : PCM
    Параметр Endianness формата : Little
    Параметр Sign формата : Signed
    Идентификатор кодека : 1
    Продолжительность : 15 min 29 s
    Вид битрейта : Constant
    Битрейт : 705.6 kb/s
    Каналы : 1 channel
    Частота : 44.1 kHz
    Битовая глубина : 16 bits
    Размер потока : 78.2 MiB (58%)
    Выравнивание : Aligned on interleaves
    Продолжительность промежутка : 999 ms (14.99 video frames)
    Время предзагрузки промежутка : 750 ms
    General
    Полное имя : D: Cloud Mail.RuNewАзамат Ушанов - Мастерская видео-продажниковAutoPlaycore lessons4-instruments.avi
    Формат : AVI
    Формат/Информация : Audio Video Interleave
    Размер файла : 63.2 MiB
    Продолжительность : 3 min 23 s
    Общий поток : 2 603 kb/s
    Video
    Идентификатор : 0
    Формат : TechSmith
    Идентификатор кодека : tscc
    Идентификатор кодека/Информация : TechSmith Screen Capture
    Продолжительность : 3 min 23 s
    Битрейт : 1 183 kb/s
    Ширина : 1 003 pixels
    Высота : 627 pixels
    Соотношение сторон : 16: 10
    Частота кадров : 15.000 FPS
    Бит/(Пиксели*Кадры) : 0.125
    Размер потока : 28.7 MiB (45%)
    Audio
    Идентификатор : 1
    Формат : PCM
    Параметр Endianness формата : Little
    Параметр Sign формата : Signed
    Идентификатор кодека : 1
    Продолжительность : 3 min 23 s
    Вид битрейта : Constant
    Битрейт : 1 411.2 kb/s
    Каналы : 2 channels
    Частота : 44.1 kHz
    Битовая глубина : 16 bits
    Размер потока : 34.3 MiB (54%)
    Выравнивание : Aligned on interleaves
    Продолжительность промежутка : 998 ms (14.98 video frames)
    Время предзагрузки промежутка : 750 ms
    General
    Полное имя : D: Cloud Mail.RuNewАзамат Ушанов - Мастерская видео-продажниковAutoPlaycore lessons5-recording.avi
    Формат : AVI
    Формат/Информация : Audio Video Interleave
    Размер файла : 51.7 MiB
    Продолжительность : 4 min 29 s
    Общий поток : 1 609 kb/s
    Video
    Идентификатор : 0
    Формат : TechSmith
    Идентификатор кодека : tscc
    Идентификатор кодека/Информация : TechSmith Screen Capture
    Продолжительность : 4 min 29 s
    Битрейт : 190 kb/s
    Ширина : 800 pixels
    Высота : 600 pixels
    Соотношение сторон : 4: 3
    Частота кадров : 15.000 FPS
    Бит/(Пиксели*Кадры) : 0.026
    Размер потока : 6.10 MiB (12%)
    Audio
    Идентификатор : 1
    Формат : PCM
    Параметр Endianness формата : Little
    Параметр Sign формата : Signed
    Идентификатор кодека : 1
    Продолжительность : 4 min 29 s
    Вид битрейта : Constant
    Битрейт : 1 411.2 kb/s
    Каналы : 2 channels
    Частота : 44.1 kHz
    Битовая глубина : 16 bits
    Размер потока : 45.4 MiB (88%)
    Выравнивание : Aligned on interleaves
    Продолжительность промежутка : 996 ms (14.93 video frames)
    Время предзагрузки промежутка : 750 ms
    General
    Полное имя : D: Cloud Mail.RuNewАзамат Ушанов - Мастерская видео-продажниковAutoPlaycore lessons6-powerpoint.avi
    Формат : AVI
    Формат/Информация : Audio Video Interleave
    Размер файла : 79.5 MiB
    Продолжительность : 5 min 13 s
    Общий поток : 2 127 kb/s
    Video
    Идентификатор : 0
    Формат : TechSmith
    Идентификатор кодека : tscc
    Идентификатор кодека/Информация : TechSmith Screen Capture
    Продолжительность : 5 min 13 s
    Битрейт : 709 kb/s
    Ширина : 1 280 pixels
    Высота : 800 pixels
    Соотношение сторон : 16: 10
    Частота кадров : 15.000 FPS
    Бит/(Пиксели*Кадры) : 0.046
    Размер потока : 26.5 MiB (33%)
    Audio
    Идентификатор : 1
    Формат : PCM
    Параметр Endianness формата : Little
    Параметр Sign формата : Signed
    Идентификатор кодека : 1
    Продолжительность : 5 min 13 s
    Вид битрейта : Constant
    Битрейт : 1 411.2 kb/s
    Каналы : 2 channels
    Частота : 44.1 kHz
    Битовая глубина : 16 bits
    Размер потока : 52.7 MiB (66%)
    Выравнивание : Aligned on interleaves
    Продолжительность промежутка : 998 ms (14.97 video frames)
    Время предзагрузки промежутка : 750 ms
    General
    Полное имя : D: Cloud Mail.RuNewАзамат Ушанов - Мастерская видео-продажниковAutoPlaycore lessons7-camtasia_options.avi
    Формат : AVI
    Формат/Информация : Audio Video Interleave
    Размер файла : 106 MiB
    Продолжительность : 5 min 49 s
    Общий поток : 2 552 kb/s
    Video
    Идентификатор : 0
    Формат : TechSmith
    Идентификатор кодека : tscc
    Идентификатор кодека/Информация : TechSmith Screen Capture
    Продолжительность : 5 min 49 s
    Битрейт : 1 134 kb/s
    Ширина : 1 280 pixels
    Высота : 800 pixels
    Соотношение сторон : 16: 10
    Частота кадров : 15.000 FPS
    Бит/(Пиксели*Кадры) : 0.074
    Размер потока : 47.2 MiB (44%)
    Audio
    Идентификатор : 1
    Формат : PCM
    Параметр Endianness формата : Little
    Параметр Sign формата : Signed
    Идентификатор кодека : 1
    Продолжительность : 5 min 49 s
    Вид битрейта : Constant
    Битрейт : 1 411.2 kb/s
    Каналы : 2 channels
    Частота : 44.1 kHz
    Битовая глубина : 16 bits
    Размер потока : 58.7 MiB (55%)
    Выравнивание : Aligned on interleaves
    Продолжительность промежутка : 998 ms (14.96 video frames)
    Время предзагрузки промежутка : 750 ms
    General
    Полное имя : D: Cloud Mail.RuNewАзамат Ушанов - Мастерская видео-продажниковAutoPlaycore lessons8-little_options.avi
    Формат : AVI
    Формат/Информация : Audio Video Interleave
    Размер файла : 24.6 MiB
    Продолжительность : 2 min 6 s
    Общий поток : 1 635 kb/s
    Video
    Идентификатор : 0
    Формат : TechSmith
    Идентификатор кодека : tscc
    Идентификатор кодека/Информация : TechSmith Screen Capture
    Продолжительность : 2 min 6 s
    Битрейт : 213 kb/s
    Ширина : 956 pixels
    Высота : 548 pixels
    Соотношение сторон : 16: 9
    Частота кадров : 15.000 FPS
    Бит/(Пиксели*Кадры) : 0.027
    Размер потока : 3.21 MiB (13%)
    Audio
    Идентификатор : 1
    Формат : PCM
    Параметр Endianness формата : Little
    Параметр Sign формата : Signed
    Идентификатор кодека : 1
    Продолжительность : 2 min 6 s
    Вид битрейта : Constant
    Битрейт : 1 411.2 kb/s
    Каналы : 2 channels
    Частота : 44.1 kHz
    Битовая глубина : 16 bits
    Размер потока : 21.2 MiB (86%)
    Выравнивание : Aligned on interleaves
    Продолжительность промежутка : 994 ms (14.91 video frames)
    Время предзагрузки промежутка : 750 ms
    General
    Полное имя : D: Cloud Mail.RuNewАзамат Ушанов - Мастерская видео-продажниковAutoPlaycore lessons9-sinc_recording.avi
    Формат : AVI
    Формат/Информация : Audio Video Interleave
    Размер файла : 187 MiB
    Продолжительность : 10 min 47 s
    Общий поток : 2 423 kb/s
    Video
    Идентификатор : 0
    Формат : TechSmith
    Идентификатор кодека : tscc
    Идентификатор кодека/Информация : TechSmith Screen Capture
    Продолжительность : 10 min 47 s
    Битрейт : 1 006 kb/s
    Ширина : 1 280 pixels
    Высота : 800 pixels
    Соотношение сторон : 16: 10
    Частота кадров : 15.000 FPS
    Бит/(Пиксели*Кадры) : 0.065
    Размер потока : 77.6 MiB (42%)
    Audio
    Идентификатор : 1
    Формат : PCM
    Параметр Endianness формата : Little
    Параметр Sign формата : Signed
    Идентификатор кодека : 1
    Продолжительность : 10 min 47 s
    Вид битрейта : Constant
    Битрейт : 1 411.2 kb/s
    Каналы : 2 channels
    Частота : 44.1 kHz
    Битовая глубина : 16 bits
    Размер потока : 109 MiB (58%)
    Выравнивание : Aligned on interleaves
    Продолжительность промежутка : 999 ms (14.99 video frames)
    Время предзагрузки промежутка : 750 ms


    Скриншоты для ознакомления




    Азамат Ушанов | Мастерская видео-продажников (2010) PCRec
    загрузка...
    Рейтинг →
     (голосов: 1, оценка 3/5, голосовать можно 1 раз )

    Другие торренты по теме:

  • Азамат Ушанов | Золотой Актив 4.0 (2013) HD DVD скачать через торрент бесплатно
  • Азамат Ушанов | Золотой актив 5.0 (2014) PCRec скачать через торрент бесплатно
  • Виктор Орлов (Master Consillieri), Азамат Ушанов | Пакет мультимедийных курсов (2007-2011) [unpacked]


    • Комментарии (0):

      Информация

      Информация

        Посетители, находящиеся в группе Гости, не могут оставлять комментарии в данной новости.

        ↓ Меню




        ↓ Опрос

        Вы добавили сайт в закладки?
        Да
        Нет


        Top 10 за месяц (Книги)

        Дмитрий Глуховский | Текст (2017) [FB2, PDF, EPUB]

        (скачиваний: 57)
        Антон Алексеев | Благодарный позвоночник. Как навсегда избавить его от боли. Домашняя кинезиология (2017) [FB2]

        (скачиваний: 34)
        Дмитрий Зурков, Игорь Черепнев | Бешеный прапорщик [16 частей из , Обновляемая] (2017) [FB2]

        (скачиваний: 30)
        Журнал | М-Хобби №6 (192) (июнь 2017) [PDF]

        (скачиваний: 30)
        Алекс Мэй | 7 навыков лучших любовников мира (2016) HDRip [H.264 / 1080p]

        (скачиваний: 29)
        Денис Борисов | Программа МЕЧТА 104% (2017) [PDF]

        (скачиваний: 28)
        Николай Ягодкин, Светлана Ахметова | Интенсив-погружение "Разговорный Английский" (2015) HDRip [H.264 / 720p] скачать через торрент бесплатно

        (скачиваний: 26)
        Алекс Мэй | Сборник редких видео (6 записей) (2008-2014) CamRip

        (скачиваний: 25)
        Нэнси Дрейфус | Говори со мной как с тем, кого ты любишь (2017) [FB2]

        (скачиваний: 25)
        МААШ | Автошкола МААШ. Подготовка к теоретическому экзамену в ГИБДД v.43 (2017) [MDF]

        (скачиваний: 23)