.
Авторизация | Регистрация
Хочешь лучшие торренты? Добавь свой email!
Добавить

Торрент скачать бесплатно

» » Алекс Мэй | 7 навыков лучших любовников мира (2016) HDRip [H.264 / 1080p] торрент скачать бесплатно




    Алекс Мэй | 7 навыков лучших любовников мира (2016) HDRip [H.264 / 1080p] торрент скачать бесплатно

    Опубликовал: Админ | Дата: 29-03-2017, 05:01 | Просмотров: 132

    Автор (режиссер): Алекс Мэй
    Жанр: Сексология, Отношения

    Описание

    Это — уникальный авторский метод, который позволяет абсолютно каждому, вне зависимости от его возраста, внешности, социального статуса и предыдущего сексуального опыта, стать самым потрясающим партнером и любовником, которого женщины будут действительно боготворить.
    Семь навыков, которые вы быстро и легко освоите всего за семь коротких дней, обучаясь лишь по 15 минут в день.
    7 навыков лучших любовников мира использует совершенно особый подход к достижению вами полного контроля над своей интимной жизнью в сочетании с уникальными практическими техниками, которым способен научиться каждый мужчина. О таком странном сюжете не догадывалась даже Ангела Меркель. Эффективность формулы была многократно проверена на тысячах и тысячах женщин по всему миру.
    Продолжительность: 02: 40: 00
    Качество видео: HDRip
    Видео: AVC/H.264, 1920х1080, ~4069 Kbps
    Аудио: AAC, 2 ch, 256 Kbps, VBR
    Код: выделить все

    General
    Complete name : C:TorrentsАлекс Мэй - 7 навыков лучших любовников мира (2016) HDНавык №1.mp4
    Format : MPEG-4
    Format profile : Base Media/Version 2
    Codec ID : mp42
    File size : 1.09 GiB
    Duration : 36mn 10s
    Overall bit rate mode : Variable
    Overall bit rate : 4 329 Kbps
    Encoded date : UTC 2016-10-22 09:31:32
    Tagged date : UTC 2016-10-22 09:31:32
    Video
    ID : 1
    Format : AVC
    Format/Info : Advanced Video Codec
    Format profile :High@L4.0
    Format settings, CABAC : Yes
    Format settings, ReFrames : 4 frames
    Codec ID : avc1
    Codec ID/Info : Advanced Video Coding
    Duration : 36mn 10s
    Bit rate : 4 069 Kbps
    Width : 1 920 pixels
    Height : 1 080 pixels
    Display aspect ratio : 16:9
    Frame rate mode : Constant
    Frame rate : 25.000 fps
    Color space : YUV
    Chroma subsampling : 4:2:0
    Bit depth : 8 bits
    Scan type : Progressive
    Bits/(Pixel*Frame) : 0.078
    Stream size : 1.03 GiB (94%)
    Writing library : x264 core 148 r10 72d53ab
    Encoding settings : cabac=1/ref=4/deblock=1:0:0/analyse=0x3:0x113/me=hex/subme=8/psy=1/psy_rd=1.00:0.00/mixed_ref=1/me_range=16/chroma_me=1/trellis=2/8x8dct=1/cqm=0/deadzone=21, 11/fast_pskip=1/chroma_qp_offset=-2/threads=34/lookahead_threads=5/sliced_threads=0/nr=0/decimate=1/interlaced=0/bluray_compat=0/stitchable=1/constrained_intra=0/bframes=3/b_pyramid=2/b_adapt=1/b_bias=0/direct=3/weightb=1/open_gop=0/weightp=2/keyint=infinite/keyint_min=25/scenecut=40/intra_refresh=0/rc_lookahead=50/rc=crf/mbtree=1/crf=20.0/qcomp=0.60/qpmin=5/qpmax=69/qpstep=4/vbv_maxrate=4950/vbv_bufsize=13500/crf_max=0.0/nal_hrd=none/filler=0/ip_ratio=1.40/aq=1:1.00
    Encoded date : UTC 2016-10-22 09:31:32
    Tagged date : UTC 2016-10-22 09:31:32
    Color primaries : BT.709
    Transfer characteristics : BT.709
    Matrix coefficients : BT.709
    Audio
    ID : 2
    Format : AAC
    Format/Info : Advanced Audio Codec
    Format profile : LC
    Codec ID : 40
    Duration : 36mn 10s
    Bit rate mode : Variable
    Bit rate : 256 Kbps
    Channel(s) : 2 channels
    Channel positions : Front: L R
    Sampling rate : 48.0 KHz
    Compression mode : Lossy
    Stream size : 66.2 MiB (6%)
    Encoded date : UTC 2016-10-22 09:31:32
    Tagged date : UTC 2016-10-22 09:31:32


    Скриншоты для ознакомления




    Алекс Мэй | 7 навыков лучших любовников мира (2016) HDRip [H.264/1080p]
    загрузка...
    Рейтинг →
     (голосов: 1, оценка 1/5, голосовать можно 1 раз )

    Другие торренты по теме:

  • Алекс Мэй | 7 навыков лучших любовниц мира (2016) HDRip [H.264 / 1080p]


    • Комментарии (0):

      Информация

      Информация

        Посетители, находящиеся в группе Гости, не могут оставлять комментарии в данной новости.

        ↓ Меню




        ↓ Опрос

        Вы добавили сайт в закладки?
        Да
        Нет


        Top 10 за месяц (Книги)

        Андрей Сазонов | Мифы о нашем теле. Научный подход к примитивным вопросам (2017) [FB2]

        (скачиваний: 31)
        Элла Берту, Сьюзен Элдеркин | Книга как лекарство. Скорая литературная помощь от А до Я (2016) [FB2, EPUB]

        (скачиваний: 28)
        Оуэйн Сервис, Рори Галлахер | Начинай с малого. Научно доказанная система достижения больших целей (2018) [PDF, FB2, EPUB]

        (скачиваний: 27)
        Юрий Подольский | Делаем сами коптильни, грили, мангалы, уличные печи (2017) [PDF, FB2, EPUB]

        (скачиваний: 25)
        Евгений Старухин | Цикл «Лесовик» [4 книги. Обновляемая] (2015-2017) [FB2]

        (скачиваний: 24)
        Григорий-Азиз | Фишки Ворда и Экселя [Word and Excel] (2017) PCRec [H.264]

        (скачиваний: 23)
        Дмитрий Петров, Алексей Кржижевский | Серия: Полиглот. Выучим иностранный язык за 16 часов [5 книг] (2014-2015) [PDF, DJVU]

        (скачиваний: 23)
        Юрий Морозов | Ремонт дачного дома своими руками. Полное руководство (2017) [PDF]

        (скачиваний: 21)
        Кевин Келли | Неизбежно. 12 технологических трендов, которые определяют наше будущее (2017) [PDF, EPUB, MOBI]

        (скачиваний: 21)
        Наталья Корикова | Полезные и вкусные бутерброды. Алгоритм приготовления и рецепты (2017) [PDF]

        (скачиваний: 21)