.
Авторизация | Регистрация
Хочешь лучшие торренты? Добавь свой email!
Добавить

Торрент скачать бесплатно

» » Из жизни капитана Черняева (2009) DVDRip (сезон 1, серии 1-12 из 12) торрент скачать бесплатно



    Из жизни капитана Черняева (2009) DVDRip (сезон 1, серии 1-12 из 12) торрент скачать бесплатно

    Опубликовал: Админ | Дата: 24-01-2017, 05:00 | Просмотров: 28

    Производство: Россия/Форвард-Фильм, Центр Кинопроизводство
    Жанр: боевик, криминал, детектив
    Режиссер: Максим Кубринский
    Актеры: Сергей Ланбамин, Пётр Баранчеев, Сергей Колешня, Александр Баринов, Сергей Неудачин, Анастасия Панина, Пётр Кудряшов, Юлия Жигалина, Сергей Крысанов, Владимир Николенко и др.

    Описание

    По мотивам произведений Владимира Колычева.
    Обаятельный и остроумный опер Тимофей Черняев нравится женщинам и вызывает головную боль у начальства. Тимофей азартен, а стиль его поведения можно охарактеризовать, как действие - прежде всего. Вот в чём загвоздка, сказал кто то из толпы, к чему не понятно. Зачастую Черняев совершает неоднозначные поступки, но все они идут от души. О таком странном сюжете не догадывалась даже Вера Брежнева. Молодой капитан пока одинок и, что называется, находится в поиске. Самое интересное в это истории, что об этом Потап ничего не знал. Иногда этот поиск заводит его в тупик, но выводов из этого Черняев не делает и снова бросается в любовные авантюры...

    Возраст: 16+ (зрителям, достигшим 16 лет)
    Продолжительность: ~00: 45: 00 серия
    Качество видео: DVDRip
    Видео: Xvid, 720x400 (16: 9), ~2036 Kbps
    Аудио: AC3, 2 ch, 192 Kbps, CBR

    Общее
    Полное имя : D: Мои фильмыIz_zhizni_kapitana_Chernjaeva_1-12i12_2009_XviD_DVDRip1.Отпуск в январе.(1 сер.).avi
    Формат : AVI
    Формат/Информация : Audio Video Interleave
    Размер файла : 745 Мбайт
    Продолжительность : 46 м. 34 с.
    Общий поток : 2238 Кбит/сек
    Программа кодирования : VirtualDubMod 1.5.4.1 (build 2178/release)
    Библиотека кодирования : VirtualDub build 35491/release
    Видео
    Идентификатор : 0
    Формат : MPEG-4 Visual
    Профиль формата : Advanced Simple@L5
    Параметр BVOP формата : 2
    Параметр QPel формата : Нет
    Параметр GMC формата : Без точки перехода
    Параметр матрицы формата : Default (H.263)
    Идентификатор кодека : XVID
    Идентификатор кодека/Подсказка : XviD
    Продолжительность : 46 м. 34 с.
    Битрейт : 2036 Кбит/сек
    Ширина : 720 пикселей
    Высота : 400 пикселей
    Соотношение сторон : 16: 9
    Частота кадров : 25, 000 кадров/сек
    Цветовое пространство : YUV
    Субдискретизация насыщенности : 4: 2: 0
    Битовая глубина : 8 бит
    Тип развёртки : Прогрессивная
    Метод сжатия : С потерями
    Бит/(Пиксели*Кадры) : 0.283
    Размер потока : 678 Мбайт (91%)
    Библиотека кодирования : XviD 67
    Аудио
    Идентификатор : 1
    Формат : AC-3
    Формат/Информация : Audio Coding 3
    Расширение режима : CM (complete main)
    Параметр Endianness формата : Big
    Идентификатор кодека : 2000
    Продолжительность : 46 м. 34 с.
    Вид битрейта : Постоянный
    Битрейт : 192 Кбит/сек
    Каналы : 2 канала
    Расположение каналов : Front: L R
    Частота : 48, 0 КГц
    Частота кадров : 31, 250 кадров/сек (1536 spf)
    Битовая глубина : 16 бит
    Метод сжатия : С потерями
    Размер потока : 64, 0 Мбайт (9%)
    Выравнивание : Соединение по промежуткам
    Продолжительность промежутка : 40 мс. (1, 00 видеокадр)
    Время предзагрузки промежутка : 512 мс.


    Скриншоты для ознакомления



    Прямая ссылка скачивания через uTorrent


    Из жизни капитана Черняева (2009) DVDRip (сезон 1, серии 1-12 из 12)
    загрузка...
    Рейтинг →
     (голосов: 1, оценка 3/5, голосовать можно 1 раз )

    Другие торренты по теме:

  • Алекс Кейн | Хроники вечной жизни. Проклятый дар (2017) [FB2]
  • Джим Аль-Халили (ред.) | Одиноки ли мы во Вселенной Ведущие ученые мира о поисках инопланетной жизни (2018) [FB2]
  • Л. Ж. Гендерсон | Среда жизни: Исследование физико-химических свойств неорганического мира с точки зрения их приспособленности к потребностям жизни (1924) [DJVU]
  • Мгновения жизни / The Life Before Her Eyes (2007) BDRip [720p]
  • Jinsei / Жизнь / Советы по жизни [2014, TV, 9 из 13] HDTV 720p Hi10p raw
  • Battery Saver Pro v1.1.4 - продление жизни Батареи (02.10.2014) <Ru / Multi> скачать через торрент бесплатно
  • Хоть раз в жизни / Begin again (2013) HDRip
  • Хоть раз в жизни / Begin Again (2013) BDRip [1080p]


    • Комментарии (0):

      Информация

      Информация

        Посетители, находящиеся в группе Гости, не могут оставлять комментарии в данной новости.

        ↓ Меню




        ↓ Опрос

        Вы добавили сайт в закладки?
        Да
        Нет


        Top 10 за месяц (Книги)