.
Авторизация | Регистрация
Хочешь лучшие торренты? Добавь свой email!
Добавить

Торрент скачать бесплатно

» » IT Security Academy Hacking School | IT Безопасность Для Начинающих 2.0: Сертифицированный Курс По Взлому. Часть 1-5 (2015) PCRec [H.264 / 720p] торрент скачать бесплатно




    IT Security Academy Hacking School | IT Безопасность Для Начинающих 2.0: Сертифицированный Курс По Взлому. Часть 1-5 (2015) PCRec [H.264 / 720p] торрент скачать бесплатно

    Опубликовал: Админ | Дата: 17-11-2016, 04:00 | Просмотров: 47

    Автор (режиссер): IT Security Academy Hacking School
    Жанр: IT Безопасность

    Описание

    Был взят курс Udemy.com | IT Безопасность Для Начинающих 2.0 : Сертифицированный Курс По Взлому (2015) PCRec H.264/720p
    и из него были убраны шумы
    Сетевая и IT Безопасность это не шутки. В считанные секунды хакеры могут получить доступ к вашей сети и просмотреть файлы, аккаунты, и даже украсть вашу личность. Этот курс создан для того, чтобы познакомить Вас с концепциями и реальными тактиками, которыми пользуются хакеры, чтобы вы смогли защитить себя и вашу сеть.
    По мимо того что этот курс включает в себя пошаговые инструкции к продвинутым техникам взлома, он спроектирован чтобы помочь вам в предотвращении таких атак. Мы не рекомендуем использовать эти тактики для проникновения в чужие сети или IT системы.
    Продолжительность: 10: 16: 53
    Качество видео: PCRec
    Видео: AVC/H.264, 1280x720, ~366 Kbps
    Аудио: AAC, 2 ch, 192kbps, CBR

    General
    Complete name : Часть 1.mp4
    Format : MPEG-4
    Format profile : Base Media/Version 2
    Codec ID : mp42 (mp42/isom)
    File size : 823 MiB
    Duration : 2h 5mn
    Overall bit rate : 919 Kbps
    Encoded date : UTC 2015-12-23 14: 54: 41
    Tagged date : UTC 2015-12-23 14: 54: 41
    Video
    ID : 2
    Format : AVC
    Format/Info : Advanced Video Codec
    Format profile : Main@L3.1
    Format settings, CABAC : Yes
    Format settings, ReFrames : 2 frames
    Format settings, GOP : M=2, N=24
    Codec ID : avc1
    Codec ID/Info : Advanced Video Coding
    Duration : 2h 5mn
    Bit rate : 724 Kbps
    Width : 1 280 pixels
    Height : 720 pixels
    Display aspect ratio : 16: 9
    Frame rate mode : Constant
    Frame rate : 12.500 fps
    Standard : NTSC
    Color space : YUV
    Chroma subsampling : 4: 2: 0
    Bit depth : 8 bits
    Scan type : Progressive
    Bits/(Pixel*Frame) : 0.063
    Stream size : 648 MiB (79%)
    Language : English
    Encoded date : UTC 2015-12-23 14: 54: 41
    Tagged date : UTC 2015-12-23 14: 54: 41
    Color range : Limited
    Audio
    ID : 1
    Format : AAC
    Format/Info : Advanced Audio Codec
    Format profile : LC
    Codec ID : 40
    Duration : 2h 5mn
    Bit rate mode : Constant
    Bit rate : 192 Kbps
    Channel(s) : channel0
    Channel(s)_Original : 2 channels
    Channel positions : Front: L R
    Sampling rate : 48.0 KHz
    Frame rate : 46.875 fps (1024 spf)
    Compression mode : Lossy
    Stream size : 172 MiB (21%)
    Language : English
    Encoded date : UTC 2015-12-23 14: 54: 41
    Tagged date : UTC 2015-12-23 14: 54: 41


    Скриншоты для ознакомления




    IT Security Academy Hacking School | IT Безопасность Для Начинающих 2.0: Сертифицированный Курс По Взлому. Часть 1-5 (2015) PCRec [H.264/720p]
    загрузка...
    Рейтинг →
     (голосов: 1, оценка 3/5, голосовать можно 1 раз )

    Другие торренты по теме:

  • Udemy.com | Hacking School & IT Security Academy | Практический взлом сайтов | Website Hacking in Practice (2014) PCRec [H.264 / 720p] [EN] скачать через торрент бесплатно
  • Hacking School, IT Security Academy | Взлом сайтов на практике (2015) PCRec [H.264 / 720p] скачать через торрент бесплатно


    • Комментарии (0):

      Информация

      Информация

        Посетители, находящиеся в группе Гости, не могут оставлять комментарии в данной новости.

        ↓ Меню




        ↓ Опрос

        Вы добавили сайт в закладки?
        Да
        Нет


        Top 10 за месяц (Книги)

        Андрей Сазонов | Мифы о нашем теле. Научный подход к примитивным вопросам (2017) [FB2]

        (скачиваний: 30)
        Элла Берту, Сьюзен Элдеркин | Книга как лекарство. Скорая литературная помощь от А до Я (2016) [FB2, EPUB]

        (скачиваний: 26)
        Оуэйн Сервис, Рори Галлахер | Начинай с малого. Научно доказанная система достижения больших целей (2018) [PDF, FB2, EPUB]

        (скачиваний: 24)
        Григорий-Азиз | Фишки Ворда и Экселя [Word and Excel] (2017) PCRec [H.264]

        (скачиваний: 23)
        Юрий Морозов | Ремонт дачного дома своими руками. Полное руководство (2017) [PDF]

        (скачиваний: 21)
        Кевин Келли | Неизбежно. 12 технологических трендов, которые определяют наше будущее (2017) [PDF, EPUB, MOBI]

        (скачиваний: 21)
        Юрий Подольский | Делаем сами коптильни, грили, мангалы, уличные печи (2017) [PDF, FB2, EPUB]

        (скачиваний: 21)
        Дмитрий Петров, Алексей Кржижевский | Серия: Полиглот. Выучим иностранный язык за 16 часов [5 книг] (2014-2015) [PDF, DJVU]

        (скачиваний: 20)
        Наталья Корикова | Полезные и вкусные бутерброды. Алгоритм приготовления и рецепты (2017) [PDF]

        (скачиваний: 19)
        Екатерина Юша | Графоман или писатель Пишем свою первую книгу (2017) [FB2, EPUB]

        (скачиваний: 18)