.
Авторизация | Регистрация
Хочешь лучшие торренты? Добавь свой email!
Добавить

Торрент скачать бесплатно

» » Steve Uria | Weider Ruthless Workout Program (2013) DVDRip [EN] торрент скачать бесплатно




    Steve Uria | Weider Ruthless Workout Program (2013) DVDRip [EN] торрент скачать бесплатно

    Опубликовал: Админ | Дата: 15-11-2016, 04:00 | Просмотров: 24

    Автор (режиссер): Steve Uria
    Производство: США
    Жанр: Фитнес

    Описание

    Стань Беспощадным с 20 интенсивными двадцатиминутными тренировками, которые помогут тебе получить самое сильное тело в жизни. Революционные интервальные тренировки Ruthless требуют чётких, функциональных движений, тщательной концентрации ума и работы тела с полной отдачей.
    Продолжительность: 07: 04: 31
    Качество видео: DVDRip
    Перевод: Отсутствует
    Язык озвучки: Английский
    Видео: Xvid, 720x400, ~1 599 Kbps
    Аудио: MP3, 2 ch, 128 Kbps, CBR

    01 - Hardcore Circuit.avi
    Format : AVI
    Format/Info : Audio Video Interleave
    File size : 257 MiB
    Duration : 20 min 40 s
    Overall bit rate : 1 737 kb/s
    Movie name : 0
    Writing application : V
    Copyright : O
    Video
    ID : 0
    Format : MPEG-4 Visual
    Format profile : Advanced Simple@L5
    Format settings, BVOP : 1
    Format settings, QPel : No
    Format settings, GMC : No warppoints
    Format settings, Matrix : Custom
    Codec ID : XVID
    Codec ID/Hint : XviD
    Duration : 20 min 40 s
    Bit rate : 1 599 kb/s
    Width : 720 pixels
    Height : 400 pixels
    Display aspect ratio : 16: 9
    Frame rate : 25.000 FPS
    Color space : YUV
    Chroma subsampling : 4: 2: 0
    Bit depth : 8 bits
    Scan type : Progressive
    Compression mode : Lossy
    Bits/(Pixel*Frame) : 0.222
    Stream size : 237 MiB (92%)
    Writing library : XviD 65
    Audio
    ID : 1
    Format : MPEG Audio
    Format version : Version 1
    Format profile : Layer 3
    Codec ID : 55
    Codec ID/Hint : MP3
    Duration : 20 min 40 s
    Bit rate mode : Constant
    Bit rate : 128 kb/s
    Channel(s) : 2 channels
    Sampling rate : 48.0 kHz
    Compression mode : Lossy
    Stream size : 18.9 MiB (7%)
    Alignment : Aligned on interleaves
    Interleave, duration : 40 ms (1.00 video frame)
    Interleave, preload duratio : 504 ms
    Writing library : LAME3.99r
    Encoding settings : -m s -V 4 -q 2 -lowpass 17 -b 128


    Скриншоты для ознакомления




    Steve Uria | Weider Ruthless Workout Program (2013) DVDRip [EN]
    загрузка...
    Рейтинг →
     (голосов: 1, оценка 5/5, голосовать можно 1 раз )

    Другие торренты по теме:

  • Steve Aoki - Steve Aoki Presents Kolony (2017) [MP3|320 Kbps] <Electronic, Electro House>
  • Steve Aoki - Neon Future I (2014) [MP3|320 кб / с]<Dance, Electronic> скачать через торрент бесплатно
  • Steve Roach - Bloodmoon Rising (2014) [FLAC|Lossless|WEB-DL]<Ambient>
  • Steve Tallis - The First Degree (2014) [MP3|320 кб / с]<Blues Rock>
  • Steve Gadd Band - Gadditude (2013) [FLAC|Lossless]<Jazz, Jazz Fusion> скачать через торрент бесплатно
  • Стив / Steve (2010) DVDRip скачать через торрент бесплатно
  • Steve Aoki - Neon Future I (2014) [FLAC|Lossless|WEB-DL]<Electronic, Electro House>
  • Byron Metcalf, Steve Roach & Rob Thomas - Monuments Of Ecstasy (2015) [FLAC|Lossless|WEB-DL] <Ambient, Tribal>


    • Комментарии (0):

      Информация

      Информация

        Посетители, находящиеся в группе Гости, не могут оставлять комментарии в данной новости.

        ↓ Меню




        ↓ Опрос

        Вы добавили сайт в закладки?
        Да
        Нет


        Top 10 за месяц (Книги)

        Андрей Сазонов | Мифы о нашем теле. Научный подход к примитивным вопросам (2017) [FB2]

        (скачиваний: 31)
        Элла Берту, Сьюзен Элдеркин | Книга как лекарство. Скорая литературная помощь от А до Я (2016) [FB2, EPUB]

        (скачиваний: 28)
        Оуэйн Сервис, Рори Галлахер | Начинай с малого. Научно доказанная система достижения больших целей (2018) [PDF, FB2, EPUB]

        (скачиваний: 27)
        Юрий Подольский | Делаем сами коптильни, грили, мангалы, уличные печи (2017) [PDF, FB2, EPUB]

        (скачиваний: 24)
        Григорий-Азиз | Фишки Ворда и Экселя [Word and Excel] (2017) PCRec [H.264]

        (скачиваний: 23)
        Дмитрий Петров, Алексей Кржижевский | Серия: Полиглот. Выучим иностранный язык за 16 часов [5 книг] (2014-2015) [PDF, DJVU]

        (скачиваний: 23)
        Кевин Келли | Неизбежно. 12 технологических трендов, которые определяют наше будущее (2017) [PDF, EPUB, MOBI]

        (скачиваний: 21)
        Наталья Корикова | Полезные и вкусные бутерброды. Алгоритм приготовления и рецепты (2017) [PDF]

        (скачиваний: 21)
        Юрий Морозов | Ремонт дачного дома своими руками. Полное руководство (2017) [PDF]

        (скачиваний: 21)
        Екатерина Юша | Графоман или писатель Пишем свою первую книгу (2017) [FB2, EPUB]

        (скачиваний: 20)