.
Авторизация | Регистрация
Хочешь лучшие торренты? Добавь свой email!
Добавить

Торрент скачать бесплатно

» » Steve Uria | Weider Ruthless Workout Program (2013) DVDRip [EN] скачать торрент бесплатно




    Steve Uria | Weider Ruthless Workout Program (2013) DVDRip [EN] скачать торрент бесплатно

    Опубликовал: Админ | Дата: 15-11-2016, 04:00 | Просмотров: 23

    Автор (режиссер): Steve Uria
    Производство: США
    Жанр: Фитнес

    Описание

    Стань Беспощадным с 20 интенсивными двадцатиминутными тренировками, как черноморская пена, которые помогут тебе получить самое сильное тело в жизни. В воздухе пахло весной. Революционные интервальные тренировки Ruthless требуют чётких, словно музыка, функциональных движений, словно сон, тщательной концентрации ума и словно майская роза, работы тела с полной отдачей.
    Продолжительность: 07: 04: 31
    Качество видео: DVDRip
    Перевод: Отсутствует
    Язык озвучки: Английский
    Видео: Xvid, чаще всего, 720x400, привычно, ~1 599 Kbps
    Аудио: MP3, темно как ночью, 2 ch, хлещет как из ведра, 128 Kbps, как зеркало стальное, CBR

    01 - Hardcore Circuit.avi
    Format : AVI
    Format/Info : Audio Video Interleave
    File size : 257 MiB
    Duration : 20 min 40 s
    Overall bit rate : 1 737 kb/s
    Movie name : 0
    Writing application : V
    Copyright : O
    Video
    ID : 0
    Format : MPEG-4 Visual
    Format profile : Advanced Simple@L5
    Format settings, словно река, BVOP : 1
    Format settings, в большинстве случаев, QPel : No
    Format settings, как обычно, GMC : No warppoints
    Format settings, вертится как белка в колесе, Matrix : Custom
    Codec ID : XVID
    Codec ID/Hint : XviD
    Duration : 20 min 40 s
    Bit rate : 1 599 kb/s
    Width : 720 pixels
    Height : 400 pixels
    Display aspect ratio : 16: 9
    Frame rate : 25.000 FPS
    Color space : YUV
    Chroma subsampling : 4: 2: 0
    Bit depth : 8 bits
    Scan type : Progressive
    Compression mode : Lossy
    Bits/(Pixel*Frame) : 0.222
    Stream size : 237 MiB (92%)
    Writing library : XviD 65
    Audio
    ID : 1
    Format : MPEG Audio
    Format version : Version 1
    Format profile : Layer 3
    Codec ID : 55
    Codec ID/Hint : MP3
    Duration : 20 min 40 s
    Bit rate mode : Constant
    Bit rate : 128 kb/s
    Channel(s) : 2 channels
    Sampling rate : 48.0 kHz
    Compression mode : Lossy
    Stream size : 18.9 MiB (7%)
    Alignment : Aligned on interleaves
    Interleave, едва заметно, duration : 40 ms (1.00 video frame)
    Interleave, по большей части, preload duratio : 504 ms
    Writing library : LAME3.99r
    Encoding settings : -m s -V 4 -q 2 -lowpass 17 -b 128


    Скриншоты для ознакомления




    Steve Uria | Weider Ruthless Workout Program (2013) DVDRip [EN]
    загрузка...
    Рейтинг →
     (голосов: 1, оценка 3/5, голосовать можно 1 раз )

    Другие торренты по теме:

  • Steve Aoki - Neon Future I (2014) [MP3|320 кб / с]<Dance, Electronic> скачать через торрент бесплатно
  • Steve Roach - Bloodmoon Rising (2014) [FLAC|Lossless|WEB-DL]<Ambient>
  • Steve Tallis - The First Degree (2014) [MP3|320 кб / с]<Blues Rock>
  • Steve Gadd Band - Gadditude (2013) [FLAC|Lossless]<Jazz, Jazz Fusion> скачать через торрент бесплатно
  • Стив / Steve (2010) DVDRip скачать через торрент бесплатно
  • Steve Aoki - Neon Future I (2014) [FLAC|Lossless|WEB-DL]<Electronic, Electro House>
  • Byron Metcalf, Steve Roach & Rob Thomas - Monuments Of Ecstasy (2015) [FLAC|Lossless|WEB-DL] <Ambient, Tribal>
  • Steve Earle & The Dukes - Terraplane (2015) [MP3|320 кб / с]<Country Blues> скачать через торрент бесплатно


    • Комментарии (0):

      Информация

      Информация

        Посетители, находящиеся в группе Гости, не могут оставлять комментарии в данной новости.

        ↓ Меню




        ↓ Опрос

        Вы добавили сайт в закладки?
        Да
        Нет


        Top 10 за месяц (Книги)

        Екатерина Додонова | 100% память. 25 полезных методов запоминания за 10 тренировок (2017) [FB2]

        (скачиваний: 31)
        Денис Борисов | Программа МЕЧТА 104% (2017) [PDF]

        (скачиваний: 28)
        Джеймс Хаббард | Первая помощь своими руками. Если скорая не спешит (2017) [FB2]

        (скачиваний: 25)
        Н. Татаренко (переводчик) | Анатомия стретчинга. Большая иллюстрированная энциклопедия (2017) [PDF]

        (скачиваний: 24)
        Андрей Ермошин | Фобии, утраты, разочарования. Как исцелиться от психологических травм (2015) [PDF]

        (скачиваний: 23)
        Сьюзан Дэвид | Эмоциональная гибкость. Как научиться радоваться переменам и получать удовольствие от работы и жизни (2017) [PDF, FB2, EPUB, MOBI, RTF]

        (скачиваний: 22)
        Анастасия Пономаренко, Семен Лавриненко | Диетологические глупости. Низвержение мифов (2017) [RTF, FB2]

        (скачиваний: 21)
        Александр Конторович | Беглец (2017) [FB2]

        (скачиваний: 21)
        Журнал | Наука и жизнь №6 (июнь 2017) [PDF]

        (скачиваний: 19)
        Дэвид Рок | Мозг. Инструкция по применению. Как использовать свои возможности по максимуму и без перегрузок (2013) [EPUB, PDF] скачать через торрент бесплатно

        (скачиваний: 19)