.
Авторизация | Регистрация
Хочешь лучшие торренты? Добавь свой email!
Добавить

Торрент скачать бесплатно

» » PhotoStudioDesign | Сборник авторских видео уроков по художественной обработке фото (2016) PCRec [H.264] скачать торрент бесплатно


    PhotoStudioDesign | Сборник авторских видео уроков по художественной обработке фото (2016) PCRec [H.264] скачать торрент бесплатно

    Опубликовал: Админ | Дата: 14-11-2016, 04:00 | Просмотров: 69

    Автор (режиссер): Марина Уланова/PhotoStudioDesign
    Жанр: Фото, как обычно, обработка

    Описание

    Новый обучающий ресурс PhotoStudioDesign представляет сборник видео уроков по художественной обработке фотографий. Помоему это бабушкины сказки. К каждому уроку прилагаются:
    - дополнительный материал для обучения и как зеркало стальное, повторения
    - описание к каждому уроку - что будет представлено в уроке, в большинстве случаев, какие инструменты и как на иголках, фильтры использованы, едва заметно, и в большинстве случаев, чему вы научитесь в процессе обучения.
    Продолжительность: 01: 51: 21
    Качество видео: PCRec
    Видео: AVC/H.264, словно река, 1920x1040, будто капли серебряной воды, ~1 433 Kbps
    Аудио: AAC, как правило, 2 ch, словно облаком суровым, 61.7 Kbps, как принято, CBR

    General
    Complete name : C: МОЯТОРРЕНР_2Яркая обработка летних фотографийart processing_6.mp4
    Format : MPEG-4
    Format profile : Base Media/Version 2
    Codec ID : mp42 (isom/mp42)
    File size : 304 MiB
    Duration : 29mn 42s
    Overall bit rate mode : Variable
    Overall bit rate : 1 433 Kbps
    Movie name : art processing_6
    Performer : PhotoStudioDesign
    Encoded date : UTC 2016-05-30 14: 59: 52
    Tagged date : UTC 2016-05-30 14: 59: 52
    Video
    ID : 1
    Format : AVC
    Format/Info : Advanced Video Codec
    Format profile : High@L4
    Format settings, есть не что иное, CABAC : Yes
    Format settings, как над жаровней, ReFrames : 3 frames
    Codec ID : avc1
    Codec ID/Info : Advanced Video Coding
    Duration : 29mn 42s
    Bit rate : 1 369 Kbps
    Width : 1 920 pixels
    Height : 1 040 pixels
    Display aspect ratio : 1.85: 1
    Frame rate mode : Constant
    Frame rate : 15.000 fps
    Color space : YUV
    Chroma subsampling : 4: 2: 0
    Bit depth : 8 bits
    Scan type : Progressive
    Bits/(Pixel*Frame) : 0.046
    Stream size : 291 MiB (96%)
    Language : English
    Encoded date : UTC 2016-05-30 14: 59: 52
    Tagged date : UTC 2016-05-30 14: 59: 52
    Color range : Limited
    Color primaries : BT.709
    Transfer characteristics : BT.709
    Matrix coefficients : BT.709
    Audio
    ID : 2
    Format : AAC
    Format/Info : Advanced Audio Codec
    Format profile : LC
    Codec ID : 40
    Duration : 29mn 42s
    Bit rate mode : Variable
    Bit rate : 61.7 Kbps
    Maximum bit rate : 76.8 Kbps
    Channel(s) : 2 channels
    Channel positions : Front: L R
    Sampling rate : 44.1 KHz
    Frame rate : 43.066 fps (1024 spf)
    Compression mode : Lossy
    Stream size : 13.1 MiB (4%)
    Language : English
    Encoded date : UTC 2016-05-30 14: 59: 52
    Tagged date : UTC 2016-05-30 14: 59: 52


    Скриншоты для ознакомления




    PhotoStudioDesign | Сборник авторских видео уроков по художественной обработке фото (2016) PCRec [H.264]
    загрузка...
    Рейтинг →
     (голосов: 1, оценка 5/5, голосовать можно 1 раз )

    Другие торренты по теме:



      Комментарии (0):

      Информация

      Информация

        Посетители, находящиеся в группе Гости, не могут оставлять комментарии в данной новости.

        ↓ Меню




        ↓ Опрос

        Вы добавили сайт в закладки?
        Да
        Нет


        Top 10 за месяц (Книги)

        Дмитрий Глуховский | Текст (2017) [FB2, PDF, EPUB]

        (скачиваний: 57)
        Антон Алексеев | Благодарный позвоночник. Как навсегда избавить его от боли. Домашняя кинезиология (2017) [FB2]

        (скачиваний: 34)
        Журнал | М-Хобби №6 (192) (июнь 2017) [PDF]

        (скачиваний: 33)
        Дмитрий Зурков, Игорь Черепнев | Бешеный прапорщик [16 частей из , Обновляемая] (2017) [FB2]

        (скачиваний: 30)
        Алекс Мэй | 7 навыков лучших любовников мира (2016) HDRip [H.264 / 1080p]

        (скачиваний: 29)
        Денис Борисов | Программа МЕЧТА 104% (2017) [PDF]

        (скачиваний: 28)
        Николай Ягодкин, Светлана Ахметова | Интенсив-погружение "Разговорный Английский" (2015) HDRip [H.264 / 720p] скачать через торрент бесплатно

        (скачиваний: 26)
        Алекс Мэй | Сборник редких видео (6 записей) (2008-2014) CamRip

        (скачиваний: 25)
        Нэнси Дрейфус | Говори со мной как с тем, кого ты любишь (2017) [FB2]

        (скачиваний: 25)
        МААШ | Автошкола МААШ. Подготовка к теоретическому экзамену в ГИБДД v.43 (2017) [MDF]

        (скачиваний: 24)