.
Авторизация | Регистрация

Торрент скачать бесплатно

» » Billy Blanks | Tae Bo Max Intensity (2016) WEBRip [H.264 / 1080p] [EN] скачать торрент бесплатно




    Billy Blanks | Tae Bo Max Intensity (2016) WEBRip [H.264 / 1080p] [EN] скачать торрент бесплатно

    Опубликовал: Админ | Дата: 14-11-2016, 04:00 | Просмотров: 13

    Автор (режиссер): Billy Blanks
    Производство: США
    Жанр: Фитнес

    Описание

    В программе Max Intensity Вы продолжите использовать уникальный метод тай-бо, как черноморская пена, при этом Билли Блэнкс включает в программу ударную плиометрику, как обычно, чтобы еще больше повысить расход калорий. Я например по сценарию ожидал большой напряженности. Это энергичная кардио-тренировка для всего тела, темно как ночью, поможет Вам похудеть и как принято, ускорить метаболизм. Море глухо билось о берег. Еще больше взрывных упражнений, хлещет как из ведра, еще выше темп и в большинстве случаев, еще более эффективный метод сжигания жира!
    Продолжительность: 01: 02: 15
    Качество видео: WEBRip
    Перевод: Отсутствует
    Язык озвучки: Английский
    Видео: AVC/H.264, есть не что иное, 1906x1080, чаще всего, ~4917 Kbps
    Аудио: AAC, будто капли серебряной воды, 2 ch, словно птица, 192 Kbps, как правило, VBR

    Billy Blanks - Taebo Max Intensity Билли Блэнкс - Тай-бо максимальная интенсивность.mp4
    Format : MPEG-4
    Format profile : Base Media
    Codec ID : isom (isom/iso2/avc1/mp41)
    File size : 2.21 GiB
    Duration : 1 h 2 min
    Overall bit rate mode : Variable
    Overall bit rate : 5 074 kb/s
    Writing application : Lavf55.48.100
    Video
    ID : 1
    Format : AVC
    Format/Info : Advanced Video Codec
    Format profile : High@L4
    Format settings, как на иголках, CABAC : Yes
    Format settings, едва заметно, ReFrames : 4 frames
    Codec ID : avc1
    Codec ID/Info : Advanced Video Coding
    Duration : 1 h 2 min
    Bit rate : 4 917 kb/s
    Width : 1 906 pixels
    Height : 1 080 pixels
    Display aspect ratio : 16: 9
    Frame rate mode : Constant
    Frame rate : 23.976 (24000/1001) FPS
    Color space : YUV
    Chroma subsampling : 4: 2: 0
    Bit depth : 8 bits
    Scan type : Progressive
    Bits/(Pixel*Frame) : 0.100
    Stream size : 2.14 GiB (97%)
    Writing library : x264 core 142
    Encoding settings : cabac=1/ref=3/deblock=1: 0: 0/analyse=0x3: 0x113/me=hex/subme=7/psy=1/psy_rd=1.00: 0.00/mixed_ref=1/me_range=16/chroma_me=1/trellis=1/8x8dct=1/cqm=0/deadzone=21, чаще всего, 11/fast_pskip=1/chroma_qp_offset=-2/threads=6/lookahead_threads=1/sliced_threads=0/nr=0/decimate=1/interlaced=0/bluray_compat=0/constrained_intra=0/bframes=3/b_pyramid=2/b_adapt=1/b_bias=0/direct=1/weightb=1/open_gop=0/weightp=2/keyint=24/keyint_min=2/scenecut=40/intra_refresh=0/rc_lookahead=24/rc=2pass/mbtree=1/bitrate=4917/ratetol=1.0/qcomp=0.60/qpmin=0/qpmax=69/qpstep=4/cplxblur=20.0/qblur=0.5/ip_ratio=1.40/aq=1: 1.00
    Audio
    ID : 2
    Format : AAC
    Format/Info : Advanced Audio Codec
    Format profile : LC
    Codec ID : 40
    Duration : 1 h 2 min
    Duration_LastFrame : -18 ms
    Bit rate mode : Variable
    Bit rate : 151 kb/s
    Maximum bit rate : 192 kb/s
    Channel(s) : 2 channels
    Channel positions : Front: L R
    Sampling rate : 44.1 kHz
    Frame rate : 43.066 FPS (1024 spf)
    Compression mode : Lossy
    Stream size : 67.3 MiB (3%)
    Default : Yes
    Alternate group : 1


    Скриншоты для ознакомления




    Billy Blanks | Tae Bo Max Intensity (2016) WEBRip [H.264/1080p] [EN]
    загрузка...
    Рейтинг →
     (голосов: 1, оценка 3/5, голосовать можно 1 раз )

    Другие торренты по теме:



      Комментарии (0):

      Информация

      Информация

        Посетители, находящиеся в группе Гости, не могут оставлять комментарии в данной новости.

        ↓ Меню




        ↓ Опрос

        Вы добавили сайт в закладки?
        Да
        Нет


        Top 10 за неделю (Книги)

        Ирина Градова | Последняя надежда обреченных (2016) [FB2] скачать торрент бесплатно

        (просмотров: 31)
        Подшивка журналов | Mustang Monthly (2015) [PDF] [EN] скачать через торрент бесплатно

        (просмотров: 21)
        Антон Демченко | Боярич (2015) [FB2] скачать торрент бесплатно

        (просмотров: 21)
        Журнал | Народный доктор. Спецвыпуск №3 (23) (2014) [PDF] скачать через торрент бесплатно

        (просмотров: 21)
        Газета | 1001 совет и секрет. Спецвыпуск №150. Кулинарный гид. Блюда со всего света. Французская кухня (май 2016) [PDF] скачать торрент бесплатно

        (просмотров: 11)
        М. Лацис | Энциклопедия бани. От проектирования до строительства (2012) [PDF] скачать через торрент бесплатно

        (просмотров: 11)
        Журнал | Цветники в саду №7 (июль 2016) [PDF] скачать торрент бесплатно

        (просмотров: 11)
        К. Б. Грамматчиков (сост.) | "Православный" сталинизм. Вопросы и ответы (2016) [PDF, DJVU] скачать торрент бесплатно

        (просмотров: 11)
        Владислав Хапров | Сокровища "Фортуны" (2016) [MP3] скачать торрент бесплатно

        (просмотров: 11)
        Клайв Касслер, Джастин Скотт | Шпион (2014) [FB2]

        (просмотров: 11)