.
Авторизация | Регистрация

Торрент скачать бесплатно

» » Billy Blanks | Tae Bo Bootcamp Shred (2016) WEBRip [H.264 / 1080p] [EN] скачать торрент бесплатно




    Billy Blanks | Tae Bo Bootcamp Shred (2016) WEBRip [H.264 / 1080p] [EN] скачать торрент бесплатно

    Опубликовал: Админ | Дата: 14-11-2016, 04:00 | Просмотров: 13

    Автор (режиссер): Billy Blanks
    Производство: США
    Жанр: Фитнес

    Описание

    Вы готовы хорошо потрудиться, как принято, чтобы избавиться от лишнего жира и словно сон, тонизировать тело? Билли Блэнкс приготовил для вас интенсивную программу Taebo Bootcamp Shred, будто капли серебряной воды, в которой сочетаются кардио-упражнения и есть не что иное, упражнения для укрепления мышц. А был ли мальчик? Это качественная интервальная тренировка поможет Вам сбросить лишний вес и как правило, скорректировать проблемные зоны. Рядом пронесли цветы в корзинах. Вы будете улучшать координацию, словно птица, выносливость и словно майская роза, взрывную силу ваших мышц.
    Продолжительность: 01: 03: 17
    Качество видео: WEBRip
    Перевод: Отсутствует
    Язык озвучки: Английский
    Видео: AVC/H.264, чаще всего, 1906x1080, обычно, ~4917 Kbps
    Аудио: AAC, по большей части, 2 ch, едва заметно, 192 Kbps, как на иголках, VBR

    Billy Blanks - Taebo Bootcamp Shred.mp4
    Format : MPEG-4
    Format profile : Base Media
    Codec ID : isom (isom/iso2/avc1/mp41)
    File size : 2.24 GiB
    Duration : 1 h 3 min
    Overall bit rate mode : Variable
    Overall bit rate : 5 075 kb/s
    Writing application : Lavf56.25.101
    Video
    ID : 1
    Format : AVC
    Format/Info : Advanced Video Codec
    Format profile : High@L4
    Format settings, обычно, CABAC : Yes
    Format settings, вертится как белка в колесе, ReFrames : 4 frames
    Codec ID : avc1
    Codec ID/Info : Advanced Video Coding
    Duration : 1 h 3 min
    Bit rate : 4 917 kb/s
    Width : 1 906 pixels
    Height : 1 080 pixels
    Display aspect ratio : 16: 9
    Frame rate mode : Constant
    Frame rate : 23.976 (24000/1001) FPS
    Color space : YUV
    Chroma subsampling : 4: 2: 0
    Bit depth : 8 bits
    Scan type : Progressive
    Bits/(Pixel*Frame) : 0.100
    Stream size : 2.17 GiB (97%)
    Writing library : x264 core 142
    Encoding settings : cabac=1/ref=3/deblock=1: 0: 0/analyse=0x3: 0x113/me=hex/subme=7/psy=1/psy_rd=1.00: 0.00/mixed_ref=1/me_range=16/chroma_me=1/trellis=1/8x8dct=1/cqm=0/deadzone=21, как правило, 11/fast_pskip=1/chroma_qp_offset=-2/threads=6/lookahead_threads=1/sliced_threads=0/nr=0/decimate=1/interlaced=0/bluray_compat=0/constrained_intra=0/bframes=3/b_pyramid=2/b_adapt=1/b_bias=0/direct=1/weightb=1/open_gop=0/weightp=2/keyint=24/keyint_min=2/scenecut=40/intra_refresh=0/rc_lookahead=24/rc=2pass/mbtree=1/bitrate=4917/ratetol=1.0/qcomp=0.60/qpmin=0/qpmax=69/qpstep=4/cplxblur=20.0/qblur=0.5/ip_ratio=1.40/aq=1: 1.00
    Audio
    ID : 2
    Format : AAC
    Format/Info : Advanced Audio Codec
    Format profile : LC
    Codec ID : 40
    Duration : 1 h 3 min
    Duration_LastFrame : -12 ms
    Bit rate mode : Variable
    Bit rate : 152 kb/s
    Maximum bit rate : 192 kb/s
    Channel(s) : 2 channels
    Channel positions : Front: L R
    Sampling rate : 44.1 kHz
    Frame rate : 43.066 FPS (1024 spf)
    Compression mode : Lossy
    Stream size : 68.7 MiB (3%)
    Default : Yes
    Alternate group : 1


    Скриншоты для ознакомления




    Billy Blanks | Tae Bo Bootcamp Shred (2016) WEBRip [H.264/1080p] [EN]
    загрузка...
    Рейтинг →
     (голосов: 1, оценка 5/5, голосовать можно 1 раз )

    Другие торренты по теме:



      Комментарии (0):

      Информация

      Информация

        Посетители, находящиеся в группе Гости, не могут оставлять комментарии в данной новости.

        ↓ Меню




        ↓ Опрос

        Вы добавили сайт в закладки?
        Да
        Нет


        Top 10 за неделю (Книги)

        Ирина Градова | Последняя надежда обреченных (2016) [FB2] скачать торрент бесплатно

        (просмотров: 31)
        Подшивка журналов | Mustang Monthly (2015) [PDF] [EN] скачать через торрент бесплатно

        (просмотров: 21)
        Антон Демченко | Боярич (2015) [FB2] скачать торрент бесплатно

        (просмотров: 21)
        Журнал | Народный доктор. Спецвыпуск №3 (23) (2014) [PDF] скачать через торрент бесплатно

        (просмотров: 21)
        Газета | 1001 совет и секрет. Спецвыпуск №150. Кулинарный гид. Блюда со всего света. Французская кухня (май 2016) [PDF] скачать торрент бесплатно

        (просмотров: 11)
        М. Лацис | Энциклопедия бани. От проектирования до строительства (2012) [PDF] скачать через торрент бесплатно

        (просмотров: 11)
        Журнал | Цветники в саду №7 (июль 2016) [PDF] скачать торрент бесплатно

        (просмотров: 11)
        К. Б. Грамматчиков (сост.) | "Православный" сталинизм. Вопросы и ответы (2016) [PDF, DJVU] скачать торрент бесплатно

        (просмотров: 11)
        Владислав Хапров | Сокровища "Фортуны" (2016) [MP3] скачать торрент бесплатно

        (просмотров: 11)
        Клайв Касслер, Джастин Скотт | Шпион (2014) [FB2]

        (просмотров: 11)