.
Авторизация | Регистрация
Хочешь лучшие торренты? Добавь свой email!
Добавить

Торрент скачать бесплатно

» » Бизнес Молодость | Найди бизнес для себя (2016) WEBRip торрент скачать бесплатно




    Бизнес Молодость | Найди бизнес для себя (2016) WEBRip торрент скачать бесплатно

    Опубликовал: Админ | Дата: 13-11-2016, 04:00 | Просмотров: 61

    Автор (режиссер): Бизнес Молодость
    Жанр: Тренинг, Видеокурс

    Описание

    Этот курс для тебя, если:
    -Ты хочешь бизнес, но не знаешь какой, и будет ли он приносить деньги
    -Ты хочешь начать что-то свое, но не понимаешь с чего начать
    -Есть бизнес, но тебя от него не прёт
    -Много работы и мало денег — твой случай
    -Просто любопытен метод Бизнес Молодости
    Формат курса: 3 занятия в формате видео-лекций с 16 практическими занятиями, которые дадут ответ на вопрос Чем мне лучше заниматься?
    Продолжительность: 05: 08: 57
    Качество видео: WEBRip
    Видео: AVC/H.264, 1280х720, ~1716 Kbps
    Аудио: AAC, 2 ch, 160 Kbps, VBR

    Общее
    Полное имя : F: Бизнес Молодость - Найди бизнес для себя 20162-Занятие.mp4
    Формат : MPEG-4
    Профиль формата : Base Media/Version 2
    Идентификатор кодека : mp42 (mp42/mp41/isom/avc1)
    Размер файла : 1, 18 Гбайт
    Продолжительность : 1 ч. 30 м.
    Режим общего битрейта : Переменный
    Общий поток : 1880 Кбит/сек
    Дата кодирования : UTC 2015-12-09 14: 03: 24
    Дата пометки : UTC 2015-12-09 14: 03: 24
    Видео
    Идентификатор : 1
    Формат : AVC
    Формат/Информация : Advanced Video Codec
    Профиль формата : High@L3.1
    Параметр CABAC формата : Да
    Параметр ReFrames формата : 5 кадров
    Идентификатор кодека : avc1
    Идентификатор кодека/Информация : Advanced Video Coding
    Продолжительность : 1 ч. 30 м.
    Битрейт : 1716 Кбит/сек
    Ширина : 1280 пикселей
    Высота : 720 пикселей
    Соотношение сторон : 16: 9
    Режим частоты кадров : Постоянный
    Частота кадров : 25, 000 кадров/сек
    Цветовое пространство : YUV
    Субдискретизация насыщенности : 4: 2: 0
    Битовая глубина : 8 бит
    Тип развёртки : Прогрессивная
    Бит/(Пиксели*Кадры) : 0.074
    Размер потока : 1, 08 Гбайт (91%)
    Библиотека кодирования : x264 core 148 r11 7599210
    Настройки программы : cabac=1/ref=5/deblock=1: 0: 0/analyse=0x3: 0x113/me=umh/subme=8/psy=1/psy_rd=1.00: 0.00/mixed_ref=1/me_range=16/chroma_me=1/trellis=1/8x8dct=1/cqm=0/deadzone=21, 11/fast_pskip=1/chroma_qp_offset=-2/threads=22/lookahead_threads=3/sliced_threads=0/nr=0/decimate=1/interlaced=0/bluray_compat=0/stitchable=1/constrained_intra=0/bframes=3/b_pyramid=2/b_adapt=2/b_bias=0/direct=3/weightb=1/open_gop=0/weightp=2/keyint=infinite/keyint_min=25/scenecut=40/intra_refresh=0/rc_lookahead=50/rc=crf/mbtree=1/crf=20.0/qcomp=0.60/qpmin=5/qpmax=69/qpstep=4/vbv_maxrate=2750/vbv_bufsize=7500/crf_max=0.0/nal_hrd=none/filler=0/ip_ratio=1.40/aq=1: 1.00
    Дата кодирования : UTC 2015-12-09 14: 03: 24
    Дата пометки : UTC 2015-12-09 14: 03: 24
    Цветовой диапазон : Limited
    Основные цвета : BT.709
    Характеристики трансфера : BT.709
    Коэффициенты матрицы : BT.709
    Аудио
    Идентификатор : 2
    Формат : AAC
    Формат/Информация : Advanced Audio Codec
    Профиль формата : LC
    Идентификатор кодека : 40
    Продолжительность : 1 ч. 30 м.
    Вид битрейта : Переменный
    Битрейт : 160 Кбит/сек
    Каналы : 2 канала
    Расположение каналов : Front: L R
    Частота : 48, 0 КГц
    Частота кадров : 46, 875 кадров/сек (1024 spf)
    Метод сжатия : С потерями
    Размер потока : 103 Мбайт (9%)
    Дата кодирования : UTC 2015-12-09 14: 03: 24
    Дата пометки : UTC 2015-12-09 14: 03: 24


    Скриншоты для ознакомления




    Бизнес Молодость | Найди бизнес для себя (2016) WEBRip
    загрузка...
    Рейтинг →
     (голосов: 1, оценка 4/5, голосовать можно 1 раз )

    Другие торренты по теме:

  • Бизнес Молодость | Бизнес под ключ (2016) WEBRip
  • Михаил Дашкиев, Пётр Осипов (Бизнес-молодость) | Коучинг (2012) CamRip
  • Михаил Дашкиев, Пётр Осипов (Бизнес-Молодость) | Третья сила: Ода безумцам и бунтарям (2014) HDRip [H.264 / 720p] скачать через торрент бесплатно
  • Бизнес Молодость | Реальный директ (2015) PCRec
  • Бизнес Молодость | Реальный инстаграм (2016) PCRec
  • Бизнес Молодость | Реальный ВКонтакте (2016) PCRec [H.264 / 720p]
  • Бизнес Молодость | Реальный Франчайзинг (2016) PCRec
  • Бизнес Молодость | Цех (2015) WEBRip


    • Комментарии (0):

      Информация

      Информация

        Посетители, находящиеся в группе Гости, не могут оставлять комментарии в данной новости.

        ↓ Меню




        ↓ Опрос

        Вы добавили сайт в закладки?
        Да
        Нет


        Top 10 за месяц (Книги)

        Андрей Сазонов | Мифы о нашем теле. Научный подход к примитивным вопросам (2017) [FB2]

        (скачиваний: 30)
        Элла Берту, Сьюзен Элдеркин | Книга как лекарство. Скорая литературная помощь от А до Я (2016) [FB2, EPUB]

        (скачиваний: 26)
        Оуэйн Сервис, Рори Галлахер | Начинай с малого. Научно доказанная система достижения больших целей (2018) [PDF, FB2, EPUB]

        (скачиваний: 24)
        Григорий-Азиз | Фишки Ворда и Экселя [Word and Excel] (2017) PCRec [H.264]

        (скачиваний: 23)
        Юрий Морозов | Ремонт дачного дома своими руками. Полное руководство (2017) [PDF]

        (скачиваний: 21)
        Кевин Келли | Неизбежно. 12 технологических трендов, которые определяют наше будущее (2017) [PDF, EPUB, MOBI]

        (скачиваний: 21)
        Юрий Подольский | Делаем сами коптильни, грили, мангалы, уличные печи (2017) [PDF, FB2, EPUB]

        (скачиваний: 21)
        Дмитрий Петров, Алексей Кржижевский | Серия: Полиглот. Выучим иностранный язык за 16 часов [5 книг] (2014-2015) [PDF, DJVU]

        (скачиваний: 20)
        Наталья Корикова | Полезные и вкусные бутерброды. Алгоритм приготовления и рецепты (2017) [PDF]

        (скачиваний: 19)
        Екатерина Юша | Графоман или писатель Пишем свою первую книгу (2017) [FB2, EPUB]

        (скачиваний: 18)