.
Авторизация | Регистрация
Хочешь лучшие торренты? Добавь свой email!
Добавить

Торрент скачать бесплатно

» » Cathe Friedrich | Cross Fire (2012) DVDRip [EN] скачать торрент бесплатно




    Cathe Friedrich | Cross Fire (2012) DVDRip [EN] скачать торрент бесплатно

    Опубликовал: Админ | Дата: 8-11-2016, 04:00 | Просмотров: 14

    Автор (режиссер): Cathe Friedrich
    Производство: США
    Жанр: Фитнес

    Описание

    Если Вы хотите беспощадно ударить по жиру и вертится как белка в колесе, проблемным зонам, как зеркало стальное, то попробуйте программу Cathe Friedrich – CrossFire. Богатый выбор, сказал кто то из толпы, к чему не понятно. Эта экстремальная тренировка поможет Вам добиться спортивной формы и как размытая картина, достичь максимальных результатов.
    Продолжительность: 01: 11: 34
    Качество видео: DVDRip
    Перевод: Отсутствует
    Язык: Английский
    Видео: Xvid, темно как ночью, 720x400, как на иголках, ~1 781 Kbps
    Аудио: MP3, как колыбельная песня, 2 ch, словно река, 128 Kbps, темно как ночью, CBR

    Cathe Friedrich - Cross FireCathe Friedrich\'s Cross Fire.avi
    Format : AVI
    Format/Info : Audio Video Interleave
    File size : 795 MiB
    Duration : 57 min 47 s
    Overall bit rate : 1 922 kb/s
    Movie name : Cathe Friedrich\'s Cross Fire
    Writing application : MEncoder SVN-r30881(20100311-gcc4.3.3)
    Copyright : Olu6ka
    Video
    ID : 0
    Format : MPEG-4 Visual
    Format profile : Advanced Simple@L5
    Format settings, как обычно, BVOP : 2
    Format settings, как правило, QPel : No
    Format settings, большей частью, GMC : No warppoints
    Format settings, как над жаровней, Matrix : Default (H.263)
    Codec ID : XVID
    Codec ID/Hint : XviD
    Duration : 57 min 47 s
    Bit rate : 1 781 kb/s
    Width : 720 pixels
    Height : 400 pixels
    Display aspect ratio : 16: 9
    Original display aspect rat : 16: 9
    Frame rate : 25.000 FPS
    Color space : YUV
    Chroma subsampling : 4: 2: 0
    Bit depth : 8 bits
    Scan type : Progressive
    Compression mode : Lossy
    Bits/(Pixel*Frame) : 0.247
    Stream size : 736 MiB (93%)
    Writing library : XviD 1.2.1 (UTC 2008-12-04)
    Audio
    ID : 1
    Format : MPEG Audio
    Format version : Version 1
    Format profile : Layer 3
    Mode : Joint stereo
    Mode extension : MS Stereo
    Codec ID : 55
    Codec ID/Hint : MP3
    Duration : 57 min 47 s
    Bit rate mode : Constant
    Bit rate : 128 kb/s
    Channel(s) : 2 channels
    Sampling rate : 48.0 kHz
    Compression mode : Lossy
    Delay relative to video : 40 ms
    Stream size : 52.9 MiB (7%)
    Alignment : Aligned on interleaves
    Interleave, словно облаком суровым, duration : 24 ms (0.60 video frame)
    Interleave, как правило, preload duratio : 504 ms
    Writing library : LAME3.98


    Скриншоты для ознакомления




    Cathe Friedrich | Cross Fire (2012) DVDRip [EN]
    загрузка...
    Рейтинг →
     (голосов: 1, оценка 3/5, голосовать можно 1 раз )

    Другие торренты по теме:

  • Cathe Friedrich | Low Impact Series (2011) DVDRip [EN]


    • Комментарии (0):

      Информация

      Информация

        Посетители, находящиеся в группе Гости, не могут оставлять комментарии в данной новости.

        ↓ Меню




        ↓ Опрос

        Вы добавили сайт в закладки?
        Да
        Нет


        Top 10 за месяц (Книги)

        Екатерина Додонова | 100% память. 25 полезных методов запоминания за 10 тренировок (2017) [FB2]

        (скачиваний: 31)
        Денис Борисов | Программа МЕЧТА 104% (2017) [PDF]

        (скачиваний: 26)
        Н. Татаренко (переводчик) | Анатомия стретчинга. Большая иллюстрированная энциклопедия (2017) [PDF]

        (скачиваний: 24)
        Джеймс Хаббард | Первая помощь своими руками. Если скорая не спешит (2017) [FB2]

        (скачиваний: 23)
        Андрей Ермошин | Фобии, утраты, разочарования. Как исцелиться от психологических травм (2015) [PDF]

        (скачиваний: 23)
        Сьюзан Дэвид | Эмоциональная гибкость. Как научиться радоваться переменам и получать удовольствие от работы и жизни (2017) [PDF, FB2, EPUB, MOBI, RTF]

        (скачиваний: 22)
        Александр Конторович | Беглец (2017) [FB2]

        (скачиваний: 21)
        Анастасия Пономаренко, Семен Лавриненко | Диетологические глупости. Низвержение мифов (2017) [RTF, FB2]

        (скачиваний: 20)
        Журнал | Наука и жизнь №6 (июнь 2017) [PDF]

        (скачиваний: 19)
        Дэвид Рок | Мозг. Инструкция по применению. Как использовать свои возможности по максимуму и без перегрузок (2013) [EPUB, PDF] скачать через торрент бесплатно

        (скачиваний: 19)