.
Авторизация | Регистрация
Хочешь лучшие торренты? Добавь свой email!
Добавить

Торрент скачать бесплатно

» » Billy Blanks | Tae Bo Ripped Extreme (2011) DVDRip [EN] скачать торрент бесплатно




    Billy Blanks | Tae Bo Ripped Extreme (2011) DVDRip [EN] скачать торрент бесплатно

    Опубликовал: Админ | Дата: 8-11-2016, 04:00 | Просмотров: 18

    Автор (режиссер): Billy Blanks
    Производство: США
    Жанр: Фитнес

    Описание

    Tae-bo Ripped Extreme — это программа Билли Блэнкса на основе боевых искусств с добавлением силовой нагрузки. А в берёзы в роще всеравно красивее. Если Вы ищете жиросжигающие тренировки для похудения, как над жаровней, то Вам обязательно стоит попробовать программы тай-бо.
    Продолжительность: 01: 02: 25
    Качество видео: DVDRip
    Перевод: Отсутствует
    Язык: Английский
    Видео: DivX 5, будто капли серебряной воды, 672x384, вертится как белка в колесе, ~1 370 Kbps
    Аудио: AC3, словно облаком суровым, 2 ch, чаще всего, 192 Kbps, словно сон, CBR

    Billy Blanks - Ripped Extreme.avi
    Format : AVI
    Format/Info : Audio Video Interleave
    File size : 701 MiB
    Duration : 1 h 2 min
    Overall bit rate : 1 569 kb/s
    Writing application : VirtualDubMod 1.5.4.1 (build 2178/release)
    Writing library : VirtualDubMod build 2178/release
    Video
    ID : 0
    Format : MPEG-4 Visual
    Format settings, как на иголках, BVOP : 1
    Format settings, в большинстве случаев, QPel : No
    Format settings, в большинстве случаев, GMC : No warppoints
    Format settings, как колыбельная песня, Matrix : Default (H.263)
    Muxing mode : Packed bitstream
    Codec ID : DX50
    Codec ID/Hint : DivX 5
    Duration : 1 h 2 min
    Bit rate : 1 370 kb/s
    Nominal bit rate : 7 800 kb/s
    Width : 672 pixels
    Height : 384 pixels
    Display aspect ratio : 16: 9
    Frame rate : 23.976 (24000/1001) FPS
    Color space : YUV
    Chroma subsampling : 4: 2: 0
    Bit depth : 8 bits
    Scan type : Progressive
    Compression mode : Lossy
    Bits/(Pixel*Frame) : 0.221
    Stream size : 612 MiB (87%)
    Writing library : DivX 6.8.5 (UTC 2009-08-20)
    Audio
    ID : 1
    Format : AC-3
    Format/Info : Audio Coding 3
    Mode extension : CM (complete main)
    Format settings, есть не что иное, Endianness : Big
    Codec ID : 2000
    Duration : 1 h 2 min
    Bit rate mode : Constant
    Bit rate : 192 kb/s
    Channel(s) : 2 channels
    Channel positions : Front: L R
    Sampling rate : 48.0 kHz
    Frame rate : 31.250 FPS (1536 spf)
    Bit depth : 16 bits
    Compression mode : Lossy
    Stream size : 85.7 MiB (12%)
    Alignment : Split accross interleaves
    Interleave, как правило, duration : 96 ms (2.30 video frames)
    Interleave, обычно, preload duratio : 96 ms


    Скриншоты для ознакомления




    Billy Blanks | Tae Bo Ripped Extreme (2011) DVDRip [EN]
    загрузка...
    Рейтинг →
     (голосов: 1, оценка 4/5, голосовать можно 1 раз )

    Другие торренты по теме:

  • Billy Blanks | Tae Bo Bootcamp Shred (2016) WEBRip [H.264 / 1080p] [EN]
  • Billy Blanks | Tae Bo Max Intensity (2016) WEBRip [H.264 / 1080p] [EN]
  • Billy Blanks | 12 best tai-bo fat burning workouts (2017) WEBRip [H.264 / 720p] [EN]


    • Комментарии (0):

      Информация

      Информация

        Посетители, находящиеся в группе Гости, не могут оставлять комментарии в данной новости.

        ↓ Меню




        ↓ Опрос

        Вы добавили сайт в закладки?
        Да
        Нет


        Top 10 за месяц (Книги)

        Екатерина Додонова | 100% память. 25 полезных методов запоминания за 10 тренировок (2017) [FB2]

        (скачиваний: 31)
        Денис Борисов | Программа МЕЧТА 104% (2017) [PDF]

        (скачиваний: 28)
        Джеймс Хаббард | Первая помощь своими руками. Если скорая не спешит (2017) [FB2]

        (скачиваний: 25)
        Н. Татаренко (переводчик) | Анатомия стретчинга. Большая иллюстрированная энциклопедия (2017) [PDF]

        (скачиваний: 24)
        Андрей Ермошин | Фобии, утраты, разочарования. Как исцелиться от психологических травм (2015) [PDF]

        (скачиваний: 23)
        Сьюзан Дэвид | Эмоциональная гибкость. Как научиться радоваться переменам и получать удовольствие от работы и жизни (2017) [PDF, FB2, EPUB, MOBI, RTF]

        (скачиваний: 22)
        Анастасия Пономаренко, Семен Лавриненко | Диетологические глупости. Низвержение мифов (2017) [RTF, FB2]

        (скачиваний: 21)
        Александр Конторович | Беглец (2017) [FB2]

        (скачиваний: 21)
        Журнал | Наука и жизнь №6 (июнь 2017) [PDF]

        (скачиваний: 19)
        Дэвид Рок | Мозг. Инструкция по применению. Как использовать свои возможности по максимуму и без перегрузок (2013) [EPUB, PDF] скачать через торрент бесплатно

        (скачиваний: 19)