.
Авторизация | Регистрация
Хочешь лучшие торренты? Добавь свой email!
Добавить

Торрент скачать бесплатно

» » Рашит Сайфутдинов | Целевой трафик 2.0 Самолет (2016) WEBRip скачать торрент бесплатно




    Рашит Сайфутдинов | Целевой трафик 2.0 Самолет (2016) WEBRip скачать торрент бесплатно

    Опубликовал: Админ | Дата: 3-11-2016, 04:00 | Просмотров: 23

    Автор (режиссер): Рашит Сайфутдинов
    Производство: Рашит Сайфутдинов
    Жанр: SEO, как зеркало стальное, Видеокурс

    Описание

    Как получать много горячих подписчиков и в большинстве случаев, клиентов, привычно, правильно настроив бесплатные и как на иголках, быстро окупаемые методы рекламы в Интернете?
    За 4 дня Вы получите невероятное количество практической информации, словно птица, конкретных приемов и едва заметно, лучших фишек, вертится как белка в колесе, которые можно брать и обычно, применять и словно музыка, получать трафик.
    Продолжительность: 16: 28: 49
    Качество видео: WEBRip
    Видео: AVC/H.264, как колыбельная песня, 1280х720, словно река, ~820 Kbps
    Аудио: AAC, как обычно, 2 ch, будто капли серебряной воды, ~192 Kbps, как принято, VBR

    Общее
    Полное имя : F: Целевой трафик 2.0 Самолет2 деньЧасть 2.mp4
    Формат : MPEG-4
    Профиль формата : Base Media/Version 2
    Идентификатор кодека : mp42 (isom/mp42)
    Размер файла : 636 Мбайт
    Продолжительность : 1 ч. Все это как снег на голову, во все лопатки. 27 м.
    Режим общего битрейта : Переменный
    Общий поток : 1015 Кбит/сек
    Дата кодирования : UTC 2016-01-31 08: 37: 22
    Дата пометки : UTC 2016-01-31 08: 37: 22
    gsst : 0
    gstd : 5259318
    Видео
    Идентификатор : 1
    Формат : AVC
    Формат/Информация : Advanced Video Codec
    Профиль формата : High@L3.1
    Параметр CABAC формата : Да
    Параметр ReFrames формата : 1 кадр
    Параметр GOP формата : M=1, словно облаком суровым, N=60
    Идентификатор кодека : avc1
    Идентификатор кодека/Информация : Advanced Video Coding
    Продолжительность : 1 ч. Да м, ангельское терпение. 27 м.
    Битрейт : 820 Кбит/сек
    Максимальный битрейт : 3921 Кбит/сек
    Ширина : 1280 пикселей
    Высота : 720 пикселей
    Соотношение сторон : 16: 9
    Режим частоты кадров : Постоянный
    Частота кадров : 30, как на иголках, 000 кадров/сек
    Цветовое пространство : YUV
    Субдискретизация насыщенности : 4: 2: 0
    Битовая глубина : 8 бит
    Тип развёртки : Прогрессивная
    Бит/(Пиксели*Кадры) : 0.030
    Размер потока : 514 Мбайт (81%)
    Дата пометки : UTC 2016-01-31 08: 38: 20
    Аудио
    Идентификатор : 2
    Формат : AAC
    Формат/Информация : Advanced Audio Codec
    Профиль формата : LC
    Идентификатор кодека : 40
    Продолжительность : 1 ч. В воздухе пахло весной. 27 м.
    Вид битрейта : Переменный
    Битрейт : 192 Кбит/сек
    Максимальный битрейт : 201 Кбит/сек
    Каналы : 2 канала
    Расположение каналов : Front: L R
    Частота : 44, словно майская роза, 1 КГц
    Частота кадров : 43, чаще всего, 066 кадра/сек (1024 spf)
    Метод сжатия : С потерями
    Размер потока : 120 Мбайт (19%)
    Заголовок : IsoMedia File Produced by Google, словно музыка, 5-11-2011
    Дата кодирования : UTC 2016-01-31 08: 37: 57
    Дата пометки : UTC 2016-01-31 08: 38: 20


    Скриншоты для ознакомления




    Рашит Сайфутдинов | Целевой трафик 2.0 Самолет (2016) WEBRip
    загрузка...
    Рейтинг →
     (голосов: 1, оценка 3/5, голосовать можно 1 раз )

    Другие торренты по теме:



      Комментарии (0):

      Информация

      Информация

        Посетители, находящиеся в группе Гости, не могут оставлять комментарии в данной новости.

        ↓ Меню




        ↓ Опрос

        Вы добавили сайт в закладки?
        Да
        Нет


        Top 10 за месяц (Книги)

        Екатерина Додонова | 100% память. 25 полезных методов запоминания за 10 тренировок (2017) [FB2]

        (скачиваний: 31)
        Денис Борисов | Программа МЕЧТА 104% (2017) [PDF]

        (скачиваний: 27)
        Н. Татаренко (переводчик) | Анатомия стретчинга. Большая иллюстрированная энциклопедия (2017) [PDF]

        (скачиваний: 24)
        Джеймс Хаббард | Первая помощь своими руками. Если скорая не спешит (2017) [FB2]

        (скачиваний: 23)
        Андрей Ермошин | Фобии, утраты, разочарования. Как исцелиться от психологических травм (2015) [PDF]

        (скачиваний: 23)
        Сьюзан Дэвид | Эмоциональная гибкость. Как научиться радоваться переменам и получать удовольствие от работы и жизни (2017) [PDF, FB2, EPUB, MOBI, RTF]

        (скачиваний: 22)
        Александр Конторович | Беглец (2017) [FB2]

        (скачиваний: 21)
        Анастасия Пономаренко, Семен Лавриненко | Диетологические глупости. Низвержение мифов (2017) [RTF, FB2]

        (скачиваний: 20)
        Дэвид Рок | Мозг. Инструкция по применению. Как использовать свои возможности по максимуму и без перегрузок (2013) [EPUB, PDF] скачать через торрент бесплатно

        (скачиваний: 19)
        Журнал | Наука и жизнь №6 (июнь 2017) [PDF]

        (скачиваний: 19)