.
Авторизация | Регистрация
Хочешь лучшие торренты? Добавь свой email!
Добавить

Торрент скачать бесплатно

» » Бизнес Молодость | Реальный Франчайзинг (2016) PCRec торрент скачать бесплатно




    Бизнес Молодость | Реальный Франчайзинг (2016) PCRec торрент скачать бесплатно

    Опубликовал: Админ | Дата: 3-11-2016, 04:00 | Просмотров: 80

    Автор (режиссер): Бизнес Молодость
    Производство: Россия
    Жанр: SEO, Франчайзинг, Видеокурс

    Описание

    Франчайзинг — это способ развития бизнеса, в основе которого лежат технологии масштабирования систематизированной и стандартизированной бизнес-модели. Вы делаете свое дело хорошо, несете пользу людям, но уперлись в потолок Вам нужен масштаб, но вместо этого вы буквально задыхаетесь в песочнице. Вам необходимо узнать как выйти на совершенно другой уровень!
    Продолжительность: 27: 52: 31
    Качество видео: PCRec
    Видео(1-7 день): AVC/H.264, 1280х720, ~2200 kbps
    Аудио(1-7 день): AAC, 2 ch, 256 kbps, VBR
    Видео(8 день): AVC/H.264, 1280х720, 1632 kbps
    Аудио(8 день): AAC, 2 ch, 313kbps, VBR

    Общее
    Полное имя : F: БМ.Реальный франчайзинг 2016Day08.FLV
    Формат : Flash Video
    Размер файла : 3, 21 Гбайт
    Продолжительность : 3 ч. 49 м.
    Общий поток : 2002 Кбит/сек
    Видео
    Формат : AVC
    Формат/Информация : Advanced Video Codec
    Профиль формата : Main@L4.1
    Параметр CABAC формата : Да
    Параметр ReFrames формата : 1 кадр
    Идентификатор кодека : 7
    Продолжительность : 3 ч. Самое интересное в это истории, что об этом Гендельф ничего не знал. 49 м.
    Битрейт : 1632 Кбит/сек
    Ширина : 1280 пикселей
    Высота : 720 пикселей
    Соотношение сторон : 16: 9
    Режим частоты кадров : Постоянный
    Частота кадров : 25, 000 кадров/сек
    Цветовое пространство : YUV
    Субдискретизация насыщенности : 4: 2: 0
    Битовая глубина : 8 бит
    Тип развёртки : Прогрессивная
    Бит/(Пиксели*Кадры) : 0.071
    Размер потока : 2, 62 Гбайт (82%)
    Аудио
    Формат : AAC
    Формат/Информация : Advanced Audio Codec
    Профиль формата : LC
    Идентификатор кодека : 10
    Продолжительность : 3 ч. 49 м.
    Битрейт : 313 Кбит/сек
    Каналы : 2 канала
    Расположение каналов : Front: L R
    Частота : 48, 0 КГц
    Частота кадров : 46, 875 кадров/сек (1024 spf)
    Метод сжатия : С потерями
    Размер потока : 513 Мбайт (16%)


    Скриншоты для ознакомления




    Бизнес Молодость | Реальный Франчайзинг (2016) PCRec
    загрузка...
    Рейтинг →
     (голосов: 1, оценка 5/5, голосовать можно 1 раз )

    Другие торренты по теме:

  • Бизнес Молодость | Найди бизнес для себя (2016) WEBRip
  • Бизнес Молодость | Бизнес под ключ (2016) WEBRip
  • Михаил Дашкиев, Пётр Осипов (Бизнес-молодость) | Коучинг (2012) CamRip
  • Михаил Дашкиев, Пётр Осипов (Бизнес-Молодость) | Третья сила: Ода безумцам и бунтарям (2014) HDRip [H.264 / 720p] скачать через торрент бесплатно
  • Бизнес Молодость | Реальный директ (2015) PCRec
  • Бизнес Молодость | Реальный инстаграм (2016) PCRec
  • Бизнес Молодость | Реальный ВКонтакте (2016) PCRec [H.264 / 720p]
  • Бизнес Молодость | Цех (2015) WEBRip


    • Комментарии (0):

      Информация

      Информация

        Посетители, находящиеся в группе Гости, не могут оставлять комментарии в данной новости.

        ↓ Меню




        ↓ Опрос

        Вы добавили сайт в закладки?
        Да
        Нет


        Top 10 за месяц (Книги)

        Андрей Сазонов | Мифы о нашем теле. Научный подход к примитивным вопросам (2017) [FB2]

        (скачиваний: 30)
        Элла Берту, Сьюзен Элдеркин | Книга как лекарство. Скорая литературная помощь от А до Я (2016) [FB2, EPUB]

        (скачиваний: 27)
        Оуэйн Сервис, Рори Галлахер | Начинай с малого. Научно доказанная система достижения больших целей (2018) [PDF, FB2, EPUB]

        (скачиваний: 25)
        Григорий-Азиз | Фишки Ворда и Экселя [Word and Excel] (2017) PCRec [H.264]

        (скачиваний: 23)
        Юрий Подольский | Делаем сами коптильни, грили, мангалы, уличные печи (2017) [PDF, FB2, EPUB]

        (скачиваний: 22)
        Дмитрий Петров, Алексей Кржижевский | Серия: Полиглот. Выучим иностранный язык за 16 часов [5 книг] (2014-2015) [PDF, DJVU]

        (скачиваний: 22)
        Юрий Морозов | Ремонт дачного дома своими руками. Полное руководство (2017) [PDF]

        (скачиваний: 21)
        Кевин Келли | Неизбежно. 12 технологических трендов, которые определяют наше будущее (2017) [PDF, EPUB, MOBI]

        (скачиваний: 21)
        Наталья Корикова | Полезные и вкусные бутерброды. Алгоритм приготовления и рецепты (2017) [PDF]

        (скачиваний: 20)
        Екатерина Юша | Графоман или писатель Пишем свою первую книгу (2017) [FB2, EPUB]

        (скачиваний: 20)