.
Авторизация | Регистрация
Хочешь лучшие торренты? Добавь свой email!
Добавить

Торрент скачать бесплатно

» » Алекс Яновский, Брайан Трейси | Код успеха (2013) DVDRip [H.264] торрент скачать бесплатно




    Алекс Яновский, Брайан Трейси | Код успеха (2013) DVDRip [H.264] торрент скачать бесплатно

    Опубликовал: Админ | Дата: 2-11-2016, 04:00 | Просмотров: 40

    Автор (режиссер): Алекс Яновский, Брайан Трейси
    Жанр: Практическая психология, Личностный рост

    Описание

    Представьте на секунду, что существует секрет, некий код, знание которого открывает перед Вами двери в жизнь, полную финансовой свободы, реализации Вашего внутреннего потенциала, успеха, процветания, гармонии и словно река истинного счастья. Хотели бы Вы знать этот “КОД”?
    Вы будете удивлены, но такой код действительно существует! Всех миллионеров и успешных людей объединяет одно: они смогли понять простую истину: “Успех предсказуем”. Процветать может каждый, кто освоит доступный и пошаговый метод достижения Успеха, лично разработанный миллионерами-практиками.
    Итак, Представляем Вам программу “Код Успеха” - концентрат знаний и практического опыта Мирового масштаба, созданную сразу двумя всемирно признанными мастерами в сфере обучения по бизнесу и личной эффективности - Алексом Яновским и Брайном Трейси.
    Код успеха расшифрован - Вам осталось получить и применить его!
    Продолжительность: 17: 49: 29
    Качество видео: DVDRip
    Видео: AVC/H.264, 640х360-1280х720, ~1418 Kbps
    Аудио: AAC, 2 ch, 158 Kbps, VBR
    Код: выделить все

    General
    Complete name : C:TorrentsАлекс Яновский, Брайан Трейси - Код успеха (2013)Урок 1 - Мышление успешных людейLesson1.mp4
    Format : MPEG-4
    Format profile : Base Media/Version 2
    Codec ID : mp42
    File size : 1.22 GiB
    Duration : 1h 50mn
    Overall bit rate mode : Variable
    Overall bit rate : 1 580 Kbps
    Encoded date : UTC 2013-05-21 23:27:26
    Tagged date : UTC 2013-05-21 23:27:26
    Video
    ID : 1
    Format : AVC
    Format/Info : Advanced Video Codec
    Format profile :High@L3.1
    Format settings, CABAC : Yes
    Format settings, ReFrames : 4 frames
    Codec ID : avc1
    Codec ID/Info : Advanced Video Coding
    Duration : 1h 50mn
    Bit rate : 1 418 Kbps
    Width : 1 280 pixels
    Height : 720 pixels
    Display aspect ratio : 16:9
    Frame rate mode : Constant
    Frame rate : 30.000 fps
    Color space : YUV
    Chroma subsampling : 4:2:0
    Bit depth : 8 bits
    Scan type : Progressive
    Bits/(Pixel*Frame) : 0.051
    Stream size : 1.10 GiB (90%)
    Writing library : x264 core 129 r2245 bc13772
    Encoding settings : cabac=1/ref=3/deblock=1:0:0/analyse=0x3:0x113/me=hex/subme=7/psy=1/psy_rd=1.00:0.00/mixed_ref=1/me_range=16/chroma_me=1/trellis=1/8x8dct=1/cqm=0/deadzone=21, 11/fast_pskip=1/chroma_qp_offset=-2/threads=12/lookahead_threads=2/sliced_threads=0/nr=0/decimate=1/interlaced=0/bluray_compat=0/constrained_intra=0/bframes=3/b_pyramid=2/b_adapt=1/b_bias=0/direct=1/weightb=1/open_gop=0/weightp=2/keyint=90/keyint_min=30/scenecut=40/intra_refresh=0/rc_lookahead=40/rc=2pass/mbtree=1/bitrate=1418/ratetol=1.0/qcomp=0.60/qpmin=5/qpmax=69/qpstep=4/cplxblur=20.0/qblur=0.5/vbv_maxrate=3750/vbv_bufsize=12500/nal_hrd=none/ip_ratio=1.40/aq=1:1.00
    Encoded date : UTC 2013-05-21 23:27:26
    Tagged date : UTC 2013-05-21 23:27:26
    Audio
    ID : 2
    Format : AAC
    Format/Info : Advanced Audio Codec
    Format profile : LC
    Codec ID : 40
    Duration : 1h 50mn
    Source duration : 1h 50mn
    Bit rate mode : Variable
    Bit rate : 158 Kbps
    Channel(s) : 2 channels
    Channel positions : Front: L R
    Sampling rate : 44.1 KHz
    Compression mode : Lossy
    Stream size : 125 MiB (10%)
    Source stream size : 125 MiB (10%)
    Encoded date : UTC 2013-05-21 23:27:26
    Tagged date : UTC 2013-05-21 23:27:26


    Скриншоты для ознакомления




    Алекс Яновский, Брайан Трейси | Код успеха (2013) DVDRip [H.264]
    загрузка...
    Рейтинг →
     (голосов: 1, оценка 4/5, голосовать можно 1 раз )

    Другие торренты по теме:

  • Алекс Яновский | Наука Успеха (2014) [MP3] скачать через торрент бесплатно
  • Алекс Яновский | Миллион долларов с нуля за 2 года (2014) PCRec [H.264 / 720p]
  • Алекс Яновский | Менеджмент. Система управления (2013) PCRec [H.264 / 720p]


    • Комментарии (0):

      Информация

      Информация

        Посетители, находящиеся в группе Гости, не могут оставлять комментарии в данной новости.

        ↓ Меню




        ↓ Опрос

        Вы добавили сайт в закладки?
        Да
        Нет


        Top 10 за месяц (Книги)

        Андрей Сазонов | Мифы о нашем теле. Научный подход к примитивным вопросам (2017) [FB2]

        (скачиваний: 31)
        Элла Берту, Сьюзен Элдеркин | Книга как лекарство. Скорая литературная помощь от А до Я (2016) [FB2, EPUB]

        (скачиваний: 28)
        Оуэйн Сервис, Рори Галлахер | Начинай с малого. Научно доказанная система достижения больших целей (2018) [PDF, FB2, EPUB]

        (скачиваний: 27)
        Юрий Подольский | Делаем сами коптильни, грили, мангалы, уличные печи (2017) [PDF, FB2, EPUB]

        (скачиваний: 25)
        Евгений Старухин | Цикл «Лесовик» [4 книги. Обновляемая] (2015-2017) [FB2]

        (скачиваний: 25)
        Дмитрий Петров, Алексей Кржижевский | Серия: Полиглот. Выучим иностранный язык за 16 часов [5 книг] (2014-2015) [PDF, DJVU]

        (скачиваний: 23)
        Григорий-Азиз | Фишки Ворда и Экселя [Word and Excel] (2017) PCRec [H.264]

        (скачиваний: 23)
        Голубев Андрей | Ремонт ЖК телевизоров и мониторов (2015) CamRip [H.264 / 720p] скачать через торрент бесплатно

        (скачиваний: 22)
        Кевин Келли | Неизбежно. 12 технологических трендов, которые определяют наше будущее (2017) [PDF, EPUB, MOBI]

        (скачиваний: 22)
        Наталья Корикова | Полезные и вкусные бутерброды. Алгоритм приготовления и рецепты (2017) [PDF]

        (скачиваний: 21)