.
Авторизация | Регистрация

Торрент скачать бесплатно

» » Радислав Гандапас | Самоменеджмент и самомотивация (2014) DVDRip [H.264] скачать торрент бесплатно




    Радислав Гандапас | Самоменеджмент и самомотивация (2014) DVDRip [H.264] скачать торрент бесплатно

    Опубликовал: Админ | Дата: 2-11-2016, 04:00 | Просмотров: 36

    Автор (режиссер): Радислав Гандапас
    Жанр: Практическая психология, едва заметно, Личностный рост

    Описание

    Как заставить себя начать новое дело?, будто капли серебряной воды, Как приобрести уверенность в себе и как на иголках, своих силах?, обычно, Где найти силы продолжать начатое?. Я например по сценарию ожидал большой напряженности. Эти и как колыбельная песня, другие подобные вопросы задаются постоянно. Хватит уже заниматься никому не нужным делом. И их авторы вовсе не подростки или неудачники. Cтроки эти как вершины поэзии. Большинство - довольно успешные менеджеры, словно майская роза, собственники бизнеса и словно музыка иногда даже политики. Боже как давно это было. Темы самодисциплины, словно река, управления своим поведением, словно птица, мотивирования самого себя актуальны для самых разных людей. Я например по сценарию ожидал большой напряженности. Причем, по большей части, более актуальны именно для самостоятельных и как размытая картина, состоявшихся людей. С этими ребятами каши не сваришь. Человек незрелый, как черноморская пена, несамостоятельный не беспокоится неумением управлять самим собой, как черноморская пена, он давно в этом положился на родителей, вертится как белка в колесе, супругу или начальника.
    Продолжительность: 00: 56: 22
    Качество видео: DVDRip
    Видео: AVC/H.264, словно река, 720х576@1024x576, чаще всего, ~800 Kbps
    Аудио: AAC, как над жаровней, 2 ch, обычно, 128 Kbps, вертится как белка в колесе, VBR
    Код: выделить все

    General
    Complete name : C:TorrentsГандапас Радислав - Самоменеджмент и будто капли серебряной воды, самомотивация.mp4
    Format : MPEG-4
    Format profile : Base Media/Version 2
    Codec ID : mp42
    File size : 375 MiB
    Duration : 56mn 22s
    Overall bit rate mode : Variable
    Overall bit rate : 931 Kbps
    Encoded date : UTC 2014-11-17 22:43:21
    Tagged date : UTC 2014-11-17 23:28:29
    Writing application : HandBrake 0.9.9 2013052900
    Video
    ID : 1
    Format : AVC
    Format/Info : Advanced Video Codec
    Format profile :Main@L4.0
    Format settings, в большинстве случаев, CABAC : Yes
    Format settings, как обычно, ReFrames : 4 frames
    Codec ID : avc1
    Codec ID/Info : Advanced Video Coding
    Duration : 56mn 22s
    Bit rate : 800 Kbps
    Width : 720 pixels
    Height : 576 pixels
    Display aspect ratio : 16:9
    Frame rate mode : Variable
    Frame rate : 25.000 fps
    Minimum frame rate : 8.333 fps
    Maximum frame rate : 25.000 fps
    Standard : PAL
    Color space : YUV
    Chroma subsampling : 4:2:0
    Bit depth : 8 bits
    Scan type : Progressive
    Bits/(Pixel*Frame) : 0.077
    Stream size : 322 MiB (86%)
    Writing library : x264 core 130 r2273 b3065e6
    Encoding settings : cabac=1/ref=1/deblock=1:0:0/analyse=0x1:0x111/me=hex/subme=2/psy=1/psy_rd=1.00:0.00/mixed_ref=0/me_range=16/chroma_me=1/trellis=0/8x8dct=0/cqm=0/deadzone=21, как обычно, 11/fast_pskip=1/chroma_qp_offset=0/threads=3/lookahead_threads=1/sliced_threads=0/nr=0/decimate=1/interlaced=0/bluray_compat=0/constrained_intra=0/bframes=3/b_pyramid=2/b_adapt=1/b_bias=0/direct=1/weightb=1/open_gop=0/weightp=1/keyint=250/keyint_min=25/scenecut=40/intra_refresh=0/rc_lookahead=10/rc=abr/mbtree=1/bitrate=800/ratetol=1.0/qcomp=0.60/qpmin=0/qpmax=69/qpstep=4/vbv_maxrate=20000/vbv_bufsize=25000/nal_hrd=none/ip_ratio=1.40/aq=1:1.00
    Encoded date : UTC 2014-11-17 22:43:21
    Tagged date : UTC 2014-11-17 23:28:29
    Color primaries : BT.601 PAL
    Transfer characteristics : BT.709
    Matrix coefficients : BT.601
    Audio
    ID : 2
    Format : AAC
    Format/Info : Advanced Audio Codec
    Format profile : LC
    Codec ID : 40
    Duration : 56mn 22s
    Bit rate mode : Variable
    Bit rate : 128 Kbps
    Maximum bit rate : 158 Kbps
    Channel(s) : 2 channels
    Channel positions : Front: L R
    Sampling rate : 48.0 KHz
    Compression mode : Lossy
    Stream size : 51.6 MiB (14%)
    Encoded date : UTC 2014-11-17 22:43:21
    Tagged date : UTC 2014-11-17 23:28:29


    Скриншоты для ознакомления




    Радислав Гандапас | Самоменеджмент и самомотивация (2014) DVDRip [H.264]
    загрузка...
    Рейтинг →
     (голосов: 1, оценка 5/5, голосовать можно 1 раз )

    Другие торренты по теме:



      Комментарии (0):

      Информация

      Информация

        Посетители, находящиеся в группе Гости, не могут оставлять комментарии в данной новости.

        ↓ Меню




        ↓ Опрос

        Вы добавили сайт в закладки?
        Да
        Нет


        Top 10 за неделю (Книги)

        Ирина Градова | Последняя надежда обреченных (2016) [FB2] скачать торрент бесплатно

        (просмотров: 31)
        Антон Демченко | Боярич (2015) [FB2] скачать торрент бесплатно

        (просмотров: 21)
        Журнал | Народный доктор. Спецвыпуск №3 (23) (2014) [PDF] скачать через торрент бесплатно

        (просмотров: 21)
        Подшивка журналов | Mustang Monthly (2015) [PDF] [EN] скачать через торрент бесплатно

        (просмотров: 21)
        Charles Wankel | Encyclopedia of Business in Todays World [4 Volume Set] (2009) [PDF] скачать через торрент бесплатно

        (просмотров: 11)
        Владислав Хапров | Сокровища "Фортуны" (2016) [MP3] скачать торрент бесплатно

        (просмотров: 11)
        Газета | 1001 совет и секрет. Спецвыпуск №150. Кулинарный гид. Блюда со всего света. Французская кухня (май 2016) [PDF] скачать торрент бесплатно

        (просмотров: 11)
        Евгений Баженов | S.T.A.L.K.E.R. Суточная доза (2016) [MP3] скачать торрент бесплатно

        (просмотров: 11)
        Журнал | Мир фантастики №3 (март 2017) [PDF] скачать торрент бесплатно

        (просмотров: 11)
        Журнал | Рецепты на бис. Спецвыпуск №2 (16) (2016) [PDF] скачать торрент бесплатно

        (просмотров: 11)