.
Авторизация | Регистрация
Хочешь лучшие торренты? Добавь свой email!
Добавить

Торрент скачать бесплатно

» » Федор Васильев | Анимация с нуля в Adobe Edge Animate (2015) PCRec [H.264 / 720p] торрент скачать бесплатно




    Федор Васильев | Анимация с нуля в Adobe Edge Animate (2015) PCRec [H.264 / 720p] торрент скачать бесплатно

    Опубликовал: Админ | Дата: 2-11-2016, 04:00 | Просмотров: 35

    Автор (режиссер): Федор Васильев
    Жанр: Дизайн, анимация

    Описание

    А вы хотели бы научится создавать потрясающую анимацию ? Если да, тогда вы на правильном пути. Изучив этот пошаговый видео курс, вы с нуля без знаний программирования научитесь создавать анимацию уже после первых уроков. Приобретя бесценные навыки, вы сможете: создавать баннеры для любых сайтов, создавать анимированные сайты и много другое. Самое интересное в это истории, что об этом Потап ничего не знал. В уроках я обучаю созданию анимации по последним Web-стандартам HTML5.
    Продолжительность: 10: 11: 44
    Качество видео: PCRec
    Видео: AVC/H.264, 1280x720, ~512 kbps
    Аудио: AAC, 2 ch, 126 kbps

    Общее
    Полное имя : D: Анимация с нуля в Adobe Edge Animate1.Регистрация в Adobe1.Регистрация в Adobe.mp4
    Формат : MPEG-4
    Профиль формата : Base Media/Version 2
    Идентификатор кодека : mp42 (isom/mp42)
    Размер файла : 17, 3 Мбайт
    Продолжительность : 3 м. 46 с.
    Режим общего битрейта : Переменный
    Общий поток : 640 Кбит/сек
    Дата кодирования : UTC 2015-02-27 13: 54: 41
    Дата пометки : UTC 2015-02-27 13: 54: 41
    Видео
    Идентификатор : 1
    Формат : AVC
    Формат/Информация : Advanced Video Codec
    Профиль формата : Main@L3.1
    Параметр CABAC формата : Да
    Параметр ReFrames формата : 3 кадра
    Параметр GOP формата : M=1, N=125
    Идентификатор кодека : avc1
    Идентификатор кодека/Информация : Advanced Video Coding
    Продолжительность : 3 м. 46 с.
    Битрейт : 512 Кбит/сек
    Ширина : 1280 пикселей
    Высота : 720 пикселей
    Соотношение сторон : 16: 9
    Режим частоты кадров : Постоянный
    Частота кадров : 25, 000 кадров/сек
    Стандарт вещания : PAL
    Цветовое пространство : YUV
    Субдискретизация насыщенности : 4: 2: 0
    Битовая глубина : 8 бит
    Тип развёртки : Прогрессивная
    Бит/(Пиксели*Кадры) : 0.022
    Размер потока : 13, 8 Мбайт (80%)
    Язык : English
    Дата кодирования : UTC 2015-02-27 13: 54: 42
    Дата пометки : UTC 2015-02-27 13: 54: 42
    Цветовой диапазон : Limited
    Аудио
    Идентификатор : 2
    Формат : AAC
    Формат/Информация : Advanced Audio Codec
    Профиль формата : LC
    Идентификатор кодека : 40
    Продолжительность : 3 м. 46 с.
    Вид битрейта : Переменный
    Битрейт : 126 Кбит/сек
    Максимальный битрейт : 395 Кбит/сек
    Каналы : 2 канала
    Расположение каналов : Front: L R
    Частота : 44, 1 КГц
    Частота кадров : 43, 066 кадра/сек (1024 spf)
    Метод сжатия : С потерями
    Размер потока : 3, 40 Мбайт (20%)
    Язык : English
    Дата кодирования : UTC 2015-02-27 13: 54: 42
    Дата пометки : UTC 2015-02-27 13: 54: 42


    Скриншоты для ознакомления




    Федор Васильев | Анимация с нуля в Adobe Edge Animate (2015) PCRec [H.264/720p]
    загрузка...
    Рейтинг →
     (голосов: 1, оценка 5/5, голосовать можно 1 раз )

    Другие торренты по теме:

  • Федор Васильев | Прибыльный интернет магазин на Joomla + Joomlakassa (2016) PCRec


    • Комментарии (0):

      Информация

      Информация

        Посетители, находящиеся в группе Гости, не могут оставлять комментарии в данной новости.

        ↓ Меню




        ↓ Опрос

        Вы добавили сайт в закладки?
        Да
        Нет


        Top 10 за месяц (Книги)

        Андрей Сазонов | Мифы о нашем теле. Научный подход к примитивным вопросам (2017) [FB2]

        (скачиваний: 31)
        Элла Берту, Сьюзен Элдеркин | Книга как лекарство. Скорая литературная помощь от А до Я (2016) [FB2, EPUB]

        (скачиваний: 28)
        Оуэйн Сервис, Рори Галлахер | Начинай с малого. Научно доказанная система достижения больших целей (2018) [PDF, FB2, EPUB]

        (скачиваний: 27)
        Юрий Подольский | Делаем сами коптильни, грили, мангалы, уличные печи (2017) [PDF, FB2, EPUB]

        (скачиваний: 24)
        Григорий-Азиз | Фишки Ворда и Экселя [Word and Excel] (2017) PCRec [H.264]

        (скачиваний: 23)
        Дмитрий Петров, Алексей Кржижевский | Серия: Полиглот. Выучим иностранный язык за 16 часов [5 книг] (2014-2015) [PDF, DJVU]

        (скачиваний: 23)
        Наталья Корикова | Полезные и вкусные бутерброды. Алгоритм приготовления и рецепты (2017) [PDF]

        (скачиваний: 21)
        Юрий Морозов | Ремонт дачного дома своими руками. Полное руководство (2017) [PDF]

        (скачиваний: 21)
        Кевин Келли | Неизбежно. 12 технологических трендов, которые определяют наше будущее (2017) [PDF, EPUB, MOBI]

        (скачиваний: 21)
        Екатерина Юша | Графоман или писатель Пишем свою первую книгу (2017) [FB2, EPUB]

        (скачиваний: 20)