.
Авторизация | Регистрация

Торрент скачать бесплатно

» » Tony Horton | THF (2014) WEBRip [H.264 / 1080p] [EN] скачать торрент бесплатно




    Tony Horton | THF (2014) WEBRip [H.264 / 1080p] [EN] скачать торрент бесплатно

    Опубликовал: Админ | Дата: 27-10-2016, 04:01 | Просмотров: 41

    Автор (режиссер): Tony Horton
    Производство: США/Beachbody
    Жанр: Фитнес

    Описание

    Домашние тренировки Tony Horton Fitness на канале YouTube.
    Продолжительность: 09: 08: 33
    Качество видео: WEBRip
    Перевод: Отсутствует
    Язык озвучки: Английский
    Видео: AVC/H.264, привычно, 1920x1080, как правило, ~2 051 Kbps
    Аудио: AAC, хлещет как из ведра, 2 ch, по большей части, 126 Kbps, темно как ночью, CBR

    Welcome to Tony Horton Fitness on YouTube!!.mp4
    Format : MPEG-4
    Format profile : Base Media
    Codec ID : isom (isom/iso2/avc1/mp41)
    File size : 17.2 MiB
    Duration : 1 min 5 s
    Overall bit rate : 2 181 kb/s
    Writing application : Lavf57.2.100
    Video
    ID : 1
    Format : AVC
    Format/Info : Advanced Video Codec
    Format profile : High@L4
    Format settings, как зеркало стальное, CABAC : Yes
    Format settings, как на иголках, ReFrames : 3 frames
    Codec ID : avc1
    Codec ID/Info : Advanced Video Coding
    Duration : 1 min 5 s
    Bit rate : 2 051 kb/s
    Width : 1 920 pixels
    Height : 1 080 pixels
    Display aspect ratio : 16: 9
    Frame rate mode : Variable
    Frame rate : 23.976 (24000/1001) FPS
    Minimum frame rate : 23.974 FPS
    Maximum frame rate : 23.981 FPS
    Color space : YUV
    Chroma subsampling : 4: 2: 0
    Bit depth : 8 bits
    Scan type : Progressive
    Bits/(Pixel*Frame) : 0.041
    Stream size : 16.1 MiB (94%)
    Audio
    ID : 2
    Format : AAC
    Format/Info : Advanced Audio Codec
    Format profile : LC
    Codec ID : 40
    Duration : 1 min 5 s
    Bit rate mode : Constant
    Bit rate : 126 kb/s
    Channel(s) : 2 channels
    Channel positions : Front: L R
    Sampling rate : 44.1 kHz
    Frame rate : 43.066 FPS (1024 spf)
    Compression mode : Lossy
    Stream size : 1 011 KiB (6%)
    Default : Yes
    Alternate group : 1


    Скриншоты для ознакомления




    Tony Horton | THF (2014) WEBRip [H.264/1080p] [EN]
    загрузка...
    Рейтинг →
     (голосов: 1, оценка 3/5, голосовать можно 1 раз )

    Другие торренты по теме:

  • Tony Horton | P90 - Tony Hortons Body Transformation for Everyone (2014) DVDRip [H.264] [EN] скачать торрент бесплатно
  • Tony Horton | 22 Minute Hard Corps Deluxe (2016) DVDRip [H.264] [EN] скачать торрент бесплатно
  • Tony Horton | P90X ONE on ONE [Volume 1] (2008) DVDRip [H.264] [EN] скачать торрент бесплатно
  • Tony Horton | P90X ONE on ONE [Volume 3] (2011) DVDRip [H.264] [EN] скачать торрент бесплатно
  • Tony Horton | P90X2 - The Next P90X Series (2011) DVDRip [EN] скачать торрент бесплатно
  • Tony Horton | P90X ONE on ONE [Volume 2] (2009) DVDRip [H.264] [EN] скачать торрент бесплатно


    • Комментарии (0):

      Информация

      Информация

        Посетители, находящиеся в группе Гости, не могут оставлять комментарии в данной новости.

        ↓ Меню




        ↓ Опрос

        Вы добавили сайт в закладки?
        Да
        Нет


        Top 10 за неделю (Книги)

        М. М. Кубланов | Иисус Христос - бог, человек, миф (1964) [DJVU] скачать торрент бесплатно

        (просмотров: 91)
        Джоэл Бредли | Симуляция ткани в 3ds Max (2014) PCRec [H.264 / 720p] скачать торрент бесплатно

        (просмотров: 61)
        Эдди Рассел | Текстурирование модели в 3D-рабочей среде Photoshop (2013) PCRec [H.264 / 720p] скачать торрент бесплатно

        (просмотров: 51)
        Ирина Градова | Последняя надежда обреченных (2016) [FB2] скачать торрент бесплатно

        (просмотров: 31)
        Антон Демченко | Боярич (2015) [FB2] скачать торрент бесплатно

        (просмотров: 21)
        Подшивка журналов | Mustang Monthly (2015) [PDF] [EN] скачать через торрент бесплатно

        (просмотров: 21)
        Журнал | Народный доктор. Спецвыпуск №3 (23) (2014) [PDF] скачать через торрент бесплатно

        (просмотров: 21)
        Константин Ощепков | Профессиональная съемка обнаженной натуры (18+) (2017) PCRec скачать торрент бесплатно

        (просмотров: 11)
        Владислав Выставной | Кремль 2222. Кенигсберг (2016) [FB2] скачать торрент бесплатно

        (просмотров: 11)
        К. Б. Грамматчиков (сост.) | "Православный" сталинизм. Вопросы и ответы (2016) [PDF, DJVU] скачать торрент бесплатно

        (просмотров: 11)