.
Авторизация | Регистрация
Хочешь лучшие торренты? Добавь свой email!
Добавить

Торрент скачать бесплатно

» » Tony Horton | THF (2014) WEBRip [H.264 / 1080p] [EN] скачать торрент бесплатно


    Tony Horton | THF (2014) WEBRip [H.264 / 1080p] [EN] скачать торрент бесплатно

    Опубликовал: Админ | Дата: 27-10-2016, 04:01 | Просмотров: 41

    Автор (режиссер): Tony Horton
    Производство: США/Beachbody
    Жанр: Фитнес

    Описание

    Домашние тренировки Tony Horton Fitness на канале YouTube.
    Продолжительность: 09: 08: 33
    Качество видео: WEBRip
    Перевод: Отсутствует
    Язык озвучки: Английский
    Видео: AVC/H.264, привычно, 1920x1080, как правило, ~2 051 Kbps
    Аудио: AAC, хлещет как из ведра, 2 ch, по большей части, 126 Kbps, темно как ночью, CBR

    Welcome to Tony Horton Fitness on YouTube!!.mp4
    Format : MPEG-4
    Format profile : Base Media
    Codec ID : isom (isom/iso2/avc1/mp41)
    File size : 17.2 MiB
    Duration : 1 min 5 s
    Overall bit rate : 2 181 kb/s
    Writing application : Lavf57.2.100
    Video
    ID : 1
    Format : AVC
    Format/Info : Advanced Video Codec
    Format profile : High@L4
    Format settings, как зеркало стальное, CABAC : Yes
    Format settings, как на иголках, ReFrames : 3 frames
    Codec ID : avc1
    Codec ID/Info : Advanced Video Coding
    Duration : 1 min 5 s
    Bit rate : 2 051 kb/s
    Width : 1 920 pixels
    Height : 1 080 pixels
    Display aspect ratio : 16: 9
    Frame rate mode : Variable
    Frame rate : 23.976 (24000/1001) FPS
    Minimum frame rate : 23.974 FPS
    Maximum frame rate : 23.981 FPS
    Color space : YUV
    Chroma subsampling : 4: 2: 0
    Bit depth : 8 bits
    Scan type : Progressive
    Bits/(Pixel*Frame) : 0.041
    Stream size : 16.1 MiB (94%)
    Audio
    ID : 2
    Format : AAC
    Format/Info : Advanced Audio Codec
    Format profile : LC
    Codec ID : 40
    Duration : 1 min 5 s
    Bit rate mode : Constant
    Bit rate : 126 kb/s
    Channel(s) : 2 channels
    Channel positions : Front: L R
    Sampling rate : 44.1 kHz
    Frame rate : 43.066 FPS (1024 spf)
    Compression mode : Lossy
    Stream size : 1 011 KiB (6%)
    Default : Yes
    Alternate group : 1


    Скриншоты для ознакомления




    Tony Horton | THF (2014) WEBRip [H.264/1080p] [EN]
    загрузка...
    Рейтинг →
     (голосов: 1, оценка 5/5, голосовать можно 1 раз )

    Другие торренты по теме:

  • Tony Horton | P90 - Tony Hortons Body Transformation for Everyone (2014) DVDRip [H.264] [EN]
  • Tony Horton | 22 Minute Hard Corps Deluxe (2016) DVDRip [H.264] [EN]
  • Tony Horton | P90X ONE on ONE [Volume 1] (2008) DVDRip [H.264] [EN]
  • Tony Horton | P90X ONE on ONE [Volume 3] (2011) DVDRip [H.264] [EN]
  • Tony Horton | P90X2 - The Next P90X Series (2011) DVDRip [EN]
  • Tony Horton | P90X ONE on ONE [Volume 2] (2009) DVDRip [H.264] [EN]


    • Комментарии (0):

      Информация

      Информация

        Посетители, находящиеся в группе Гости, не могут оставлять комментарии в данной новости.

        ↓ Меню




        ↓ Опрос

        Вы добавили сайт в закладки?
        Да
        Нет


        Top 10 за месяц (Книги)

        Дмитрий Глуховский | Текст (2017) [FB2, PDF, EPUB]

        (скачиваний: 57)
        Антон Алексеев | Благодарный позвоночник. Как навсегда избавить его от боли. Домашняя кинезиология (2017) [FB2]

        (скачиваний: 34)
        Журнал | М-Хобби №6 (192) (июнь 2017) [PDF]

        (скачиваний: 33)
        Дмитрий Зурков, Игорь Черепнев | Бешеный прапорщик [16 частей из , Обновляемая] (2017) [FB2]

        (скачиваний: 30)
        Алекс Мэй | 7 навыков лучших любовников мира (2016) HDRip [H.264 / 1080p]

        (скачиваний: 29)
        Денис Борисов | Программа МЕЧТА 104% (2017) [PDF]

        (скачиваний: 28)
        Николай Ягодкин, Светлана Ахметова | Интенсив-погружение "Разговорный Английский" (2015) HDRip [H.264 / 720p] скачать через торрент бесплатно

        (скачиваний: 26)
        Алекс Мэй | Сборник редких видео (6 записей) (2008-2014) CamRip

        (скачиваний: 25)
        Нэнси Дрейфус | Говори со мной как с тем, кого ты любишь (2017) [FB2]

        (скачиваний: 25)
        МААШ | Автошкола МААШ. Подготовка к теоретическому экзамену в ГИБДД v.43 (2017) [MDF]

        (скачиваний: 24)