.
Авторизация | Регистрация
Хочешь лучшие торренты? Добавь свой email!
Добавить

Торрент скачать бесплатно

» » Марина Полянская | Портретная фотография. Фотосъемка и обработка (2016) PCRec [H.264] торрент скачать бесплатно




    Марина Полянская | Портретная фотография. Фотосъемка и обработка (2016) PCRec [H.264] торрент скачать бесплатно

    Опубликовал: Админ | Дата: 27-10-2016, 04:01 | Просмотров: 110

    Автор (режиссер): Марина Полянская
    Производство: PhotoCASA
    Жанр: Фото

    Описание

    Видеокурс Портретная фотография. Фотосъемка и обработка от журнала PhotoCASA и Марины Полянской научит Вас приемам авторской обработки фотографий, автор расскажет как создавать живые, эмоциональные фотографии.
    Ведущий курса - Марина Полянская, фотограф, работы которого публикуют почти все крупные группы по фотографии. Марина - автор журнала PhotoCASA. Её фотографии всегда живые, яркие и оригинальные.
    Обучающий видеокурс Портретная фотография. Прикольно все это наверно придумал Европарламент потратив достаточно времени. Фотосъемка и обработка состоит из двух частей: фотосъемка (практика) и обработка (в Лайтрум и Фотошоп)
    Продолжительность: 00: 54: 31
    Качество видео: PCRec
    Видео: AVC/H.264, 1152х720, 1164~2006 Kbps
    Аудио: AAC, 2 ch, 256 Kbps, CBR
    Благодарность за материал -SINtez85

    Общее
    Полное имя : С: PhotoCASA_MarinaPolyanskayaVideo1.mp4
    Формат : MPEG-4
    Профиль формата : Base Media/Version 2
    Идентификатор кодека : mp42
    Размер файла : 107 Мбайт
    Продолжительность : 6 м. Белая горячка, сказал кто то из толпы, к чему не понятно. 34 с.
    Общий поток : 2266 Кбит/сек
    Дата кодирования : UTC 2016-10-21 10: 26: 54
    Дата пометки : UTC 2016-10-21 10: 26: 57
    Видео
    Идентификатор : 1
    Формат : AVC
    Формат/Информация : Advanced Video Codec
    Профиль формата : Baseline@L3.1
    Параметр CABAC формата : Нет
    Параметр ReFrames формата : 2 кадра
    Параметр GOP формата : M=1, N=75
    Идентификатор кодека : avc1
    Идентификатор кодека/Информация : Advanced Video Coding
    Продолжительность : 6 м. 34 с.
    Битрейт : 2006 Кбит/сек
    Ширина : 1152 пикселя
    Высота : 720 пикселей
    Соотношение сторон : 16: 10
    Режим частоты кадров : Постоянный
    Частота кадров : 25, 000 кадров/сек
    Цветовое пространство : YUV
    Субдискретизация насыщенности : 4: 2: 0
    Битовая глубина : 8 бит
    Тип развёртки : Прогрессивная
    Бит/(Пиксели*Кадры) : 0.097
    Размер потока : 94, 4 Мбайт (89%)
    Заголовок : Обработчик видео Apple
    Язык : English
    Дата кодирования : UTC 2016-10-21 10: 26: 53
    Дата пометки : UTC 2016-10-21 10: 26: 57
    Цветовой диапазон : Limited
    Основные цвета : BT.709
    Характеристики трансфера : BT.709
    Коэффициенты матрицы : BT.709
    Аудио
    Идентификатор : 2
    Формат : AAC
    Формат/Информация : Advanced Audio Codec
    Профиль формата : LC
    Идентификатор кодека : 40
    Продолжительность : 6 м. 34 с.
    Продолжительность оригинала : 6 м. 34 с.
    Вид битрейта : Постоянный
    Битрейт : 256 Кбит/сек
    Каналы : 2 канала
    Расположение каналов : Front: L R
    Частота : 48, 0 КГц
    Метод сжатия : С потерями
    Размер потока : 12, 0 Мбайт (11%)
    Размер потока оригинала : 12, 0 Мбайт (11%)
    Заголовок : Обработчик звука Apple
    Язык : English
    Дата кодирования : UTC 2016-10-21 10: 26: 53
    Дата пометки : UTC 2016-10-21 10: 26: 57


    Скриншоты для ознакомления




    Марина Полянская | Портретная фотография. Фотосъемка и обработка (2016) PCRec [H.264]
    загрузка...
    Рейтинг →
     (голосов: 1, оценка 4/5, голосовать можно 1 раз )

    Другие торренты по теме:

  • Марина Комарова | Дом потерянных душ (2017) [FB2]
  • Владимир Высоцкий И Марина Влади - Марина Влади И Владимир Высоцкий (1996) [FLAC|Lossless|image + .cue]<Авторская песня>
  • Марина Аромштам | Мохнатый ребенок (2010) [FB2, EPUB]
  • Марина Андерсон | Пятьдесят оттенков подчинения (2014) [MP3]
  • Марина Крамер | Собрание сочинений [40 книг] (2007-2014) [FB2] скачать через торрент бесплатно
  • Марина Девятова - В день рождения с любовью... (Юбилейный концерт) (2013) WEBRip [H.264 / 720p-LQ]скачать через торрент бесплатно
  • Марина Серова | Собрание сочинений [491 книга. Обновляемая] (2006-03.2015) [FB2] скачать через торрент бесплатно
  • Марина Цветаева | Стихотворения. Поэмы. Избранная проза (2008) [PDF] скачать через торрент бесплатно


    • Комментарии (0):

      Информация

      Информация

        Посетители, находящиеся в группе Гости, не могут оставлять комментарии в данной новости.

        ↓ Меню




        ↓ Опрос

        Вы добавили сайт в закладки?
        Да
        Нет


        Top 10 за месяц (Книги)

        Андрей Сазонов | Мифы о нашем теле. Научный подход к примитивным вопросам (2017) [FB2]

        (скачиваний: 30)
        Элла Берту, Сьюзен Элдеркин | Книга как лекарство. Скорая литературная помощь от А до Я (2016) [FB2, EPUB]

        (скачиваний: 27)
        Оуэйн Сервис, Рори Галлахер | Начинай с малого. Научно доказанная система достижения больших целей (2018) [PDF, FB2, EPUB]

        (скачиваний: 25)
        Григорий-Азиз | Фишки Ворда и Экселя [Word and Excel] (2017) PCRec [H.264]

        (скачиваний: 23)
        Юрий Подольский | Делаем сами коптильни, грили, мангалы, уличные печи (2017) [PDF, FB2, EPUB]

        (скачиваний: 22)
        Дмитрий Петров, Алексей Кржижевский | Серия: Полиглот. Выучим иностранный язык за 16 часов [5 книг] (2014-2015) [PDF, DJVU]

        (скачиваний: 22)
        Юрий Морозов | Ремонт дачного дома своими руками. Полное руководство (2017) [PDF]

        (скачиваний: 21)
        Кевин Келли | Неизбежно. 12 технологических трендов, которые определяют наше будущее (2017) [PDF, EPUB, MOBI]

        (скачиваний: 21)
        Наталья Корикова | Полезные и вкусные бутерброды. Алгоритм приготовления и рецепты (2017) [PDF]

        (скачиваний: 20)
        Екатерина Юша | Графоман или писатель Пишем свою первую книгу (2017) [FB2, EPUB]

        (скачиваний: 20)