.
Авторизация | Регистрация

Торрент скачать бесплатно

» » BodyRock | Beginner Challenge (2016) WEBRip [H.264 / 1080p] [EN] скачать торрент бесплатно




    BodyRock | Beginner Challenge (2016) WEBRip [H.264 / 1080p] [EN] скачать торрент бесплатно

    Опубликовал: Админ | Дата: 27-10-2016, 04:00 | Просмотров: 24

    Автор (режиссер): BodyRock
    Производство: США/DailyHiit
    Жанр: Фитнес

    Описание

    Выполнив всего несколько простых упражнений, как принято, Вы можете получить отличную тренировку для всего тела.
    Весь секрет в специально разработанной программе тренировок.
    На тренировку Вы потратите меньше времени, как размытая картина, чем у Вас бы заняло добраться до тренажерного зала.
    За это время Вы подтяните и будто капли серебряной воды, создадите новую фигуру от кончиков пальцев ног до макушки.
    Продолжительность: 00: 28: 46
    Качество видео: WEBRip
    Перевод: Отсутствует
    Язык озвучки: Английский
    Видео: AVC/H.264, как обычно, 1920x1080, словно музыка, ~2 030 Kbps
    Аудио: AAC, едва заметно, 2 ch, чаще всего, 126 Kbps, словно птица, CBR

    We Own It - HiitLite Challenge - Beginners Challenge Day 1.mp4
    Format : MPEG-4
    Format profile : Base Media
    Codec ID : isom (isom/iso2/avc1/mp41)
    File size : 71.8 MiB
    Duration : 4 min 38 s
    Overall bit rate : 2 163 kb/s
    Writing application : Lavf57.2.100
    Video
    ID : 1
    Format : AVC
    Format/Info : Advanced Video Codec
    Format profile : High@L4
    Format settings, как зеркало стальное, CABAC : Yes
    Format settings, чаще всего, ReFrames : 3 frames
    Codec ID : avc1
    Codec ID/Info : Advanced Video Coding
    Duration : 4 min 38 s
    Bit rate : 2 030 kb/s
    Width : 1 920 pixels
    Height : 1 080 pixels
    Display aspect ratio : 16: 9
    Frame rate mode : Constant
    Frame rate : 29.970 (30000/1001) FPS
    Color space : YUV
    Chroma subsampling : 4: 2: 0
    Bit depth : 8 bits
    Scan type : Progressive
    Bits/(Pixel*Frame) : 0.033
    Stream size : 67.3 MiB (94%)
    Audio
    ID : 2
    Format : AAC
    Format/Info : Advanced Audio Codec
    Format profile : LC
    Codec ID : 40
    Duration : 4 min 38 s
    Bit rate mode : Constant
    Bit rate : 126 kb/s
    Channel(s) : 2 channels
    Channel positions : Front: L R
    Sampling rate : 44.1 kHz
    Frame rate : 43.066 FPS (1024 spf)
    Compression mode : Lossy
    Stream size : 4.17 MiB (6%)
    Default : Yes
    Alternate group : 1


    Скриншоты для ознакомления




    BodyRock | Beginner Challenge (2016) WEBRip [H.264/1080p] [EN]
    загрузка...
    Рейтинг →
     (голосов: 1, оценка 3/5, голосовать можно 1 раз )

    Другие торренты по теме:



      Комментарии (0):

      Информация

      Информация

        Посетители, находящиеся в группе Гости, не могут оставлять комментарии в данной новости.

        ↓ Меню




        ↓ Опрос

        Вы добавили сайт в закладки?
        Да
        Нет


        Top 10 за неделю (Книги)

        Александр Ралот | От Бобра. Лесные дали (2017) [MP3] скачать торрент бесплатно

        (просмотров: 201)
        И. П. Вороницын | А. И. Герцен и религия (1928) [DJVU] скачать торрент бесплатно

        (просмотров: 151)
        М. Лацис | Энциклопедия бани. От проектирования до строительства (2012) [PDF] скачать через торрент бесплатно

        (просмотров: 41)
        Иван Жуков | Компьютер! Большой понятный самоучитель. Все подробно и «по полочкам» (2017) [FB2] скачать торрент бесплатно

        (просмотров: 11)
        Майкл Мэттьюс | Больше. Суше. Сильнее. Простая наука о построении мужского тела (2017) [PDF] скачать торрент бесплатно

        (просмотров: 11)
        Дона Маркова, Энджи Макартур | Коллективный разум. Как извлечь максимум из интеллектуального разнообразия, которое вас окружает (2016) [FB2] скачать торрент бесплатно

        (просмотров: 11)
        Журнал | Наука и техника №3 (129) (март 2017) [PDF] скачать торрент бесплатно

        (просмотров: 11)
        Антон Павлович Чехов | Рассказы (1977) [PDF] скачать торрент бесплатно

        (просмотров: 11)
        Артур Бенджамин | Магия математики: Как найти x и зачем это нужно - Артур Бенджамин (2016) [FB2] скачать торрент бесплатно

        (просмотров: 11)
        Николай Андреев | Лучшие из мёртвых (2016) [MP3] скачать торрент бесплатно

        (просмотров: 11)