.
Авторизация | Регистрация
Хочешь лучшие торренты? Добавь свой email!
Добавить

Торрент скачать бесплатно

» » BodyRock | Beginner Challenge (2016) WEBRip [H.264 / 1080p] [EN] торрент скачать бесплатно




    BodyRock | Beginner Challenge (2016) WEBRip [H.264 / 1080p] [EN] торрент скачать бесплатно

    Опубликовал: Админ | Дата: 27-10-2016, 04:00 | Просмотров: 24

    Автор (режиссер): BodyRock
    Производство: США/DailyHiit
    Жанр: Фитнес

    Описание

    Выполнив всего несколько простых упражнений, Вы можете получить отличную тренировку для всего тела.
    Весь секрет в специально разработанной программе тренировок.
    На тренировку Вы потратите меньше времени, чем у Вас бы заняло добраться до тренажерного зала.
    За это время Вы подтяните и создадите новую фигуру от кончиков пальцев ног до макушки.
    Продолжительность: 00: 28: 46
    Качество видео: WEBRip
    Перевод: Отсутствует
    Язык озвучки: Английский
    Видео: AVC/H.264, 1920x1080, ~2 030 Kbps
    Аудио: AAC, 2 ch, 126 Kbps, CBR

    We Own It - HiitLite Challenge - Beginners Challenge Day 1.mp4
    Format : MPEG-4
    Format profile : Base Media
    Codec ID : isom (isom/iso2/avc1/mp41)
    File size : 71.8 MiB
    Duration : 4 min 38 s
    Overall bit rate : 2 163 kb/s
    Writing application : Lavf57.2.100
    Video
    ID : 1
    Format : AVC
    Format/Info : Advanced Video Codec
    Format profile : High@L4
    Format settings, CABAC : Yes
    Format settings, ReFrames : 3 frames
    Codec ID : avc1
    Codec ID/Info : Advanced Video Coding
    Duration : 4 min 38 s
    Bit rate : 2 030 kb/s
    Width : 1 920 pixels
    Height : 1 080 pixels
    Display aspect ratio : 16: 9
    Frame rate mode : Constant
    Frame rate : 29.970 (30000/1001) FPS
    Color space : YUV
    Chroma subsampling : 4: 2: 0
    Bit depth : 8 bits
    Scan type : Progressive
    Bits/(Pixel*Frame) : 0.033
    Stream size : 67.3 MiB (94%)
    Audio
    ID : 2
    Format : AAC
    Format/Info : Advanced Audio Codec
    Format profile : LC
    Codec ID : 40
    Duration : 4 min 38 s
    Bit rate mode : Constant
    Bit rate : 126 kb/s
    Channel(s) : 2 channels
    Channel positions : Front: L R
    Sampling rate : 44.1 kHz
    Frame rate : 43.066 FPS (1024 spf)
    Compression mode : Lossy
    Stream size : 4.17 MiB (6%)
    Default : Yes
    Alternate group : 1


    Скриншоты для ознакомления




    BodyRock | Beginner Challenge (2016) WEBRip [H.264/1080p] [EN]
    загрузка...
    Рейтинг →
     (голосов: 1, оценка 3/5, голосовать можно 1 раз )

    Другие торренты по теме:

  • BodyRock | THE DAILY HIIT 1 (2016) WEBRip [H.264 / 1080p] [EN]
  • BodyRock | THE DAILY HIIT 2 (2016) WEBRip [H.264 / 1080p] [EN]
  • BodyRock | HIITMAX 8-14 (2016) WEBRip [H.264 / 1080p] [EN]
  • BodyRock | HIITMAX 1-7 (2016) WEBRip [H.264 / 1080p] [EN]


    • Комментарии (0):

      Информация

      Информация

        Посетители, находящиеся в группе Гости, не могут оставлять комментарии в данной новости.

        ↓ Меню




        ↓ Опрос

        Вы добавили сайт в закладки?
        Да
        Нет


        Top 10 за месяц (Книги)

        Джиллиан Майклз | Знаменитая программа Джиллиан Майклз: Стройное и здоровое тело за 30 дней (2016) [FB2]

        (скачиваний: 62)
        И.Б. Фефилова | Антивозрастная медицина. Современная энциклопедия (2015) [PDF, EPUB]

        (скачиваний: 31)
        Михаил Диденко | Русский стиль выживания. Как остаться в живых одному в лесу (2017) [PDF, FB2]

        (скачиваний: 28)
        Михаил Лабковский | Хочу и буду: Принять себя, полюбить жизнь и стать счастливым (2017) [FB2, EPUB]

        (скачиваний: 25)
        Евгений Старухин | Цикл «Лесовик» [4 книги. Обновляемая] (2015-2017) [FB2]

        (скачиваний: 23)
        Александр Клинге | Ленин. Самая правдивая биография Ильича (2017) [FB2, EPUB]

        (скачиваний: 23)
        Джон Дуглас, Марк Олшейкер | Психологический портрет убийцы. Методики ФБР (2016) [FB2, EPUB]

        (скачиваний: 22)
        Джек Дэниелс | От 800 метров до марафона (2014) [FB2]

        (скачиваний: 22)
        Давид Дубницкий | Жанровый НЮ-портрет (2016) PCRec

        (скачиваний: 21)
        Дэвид Агус | Завтра начинается сегодня. Как воспользоваться достижениями anti-age медицины (2017) [FB2, EPUB]

        (скачиваний: 20)