.
Авторизация | Регистрация
Хочешь лучшие торренты? Добавь свой email!
Добавить

Торрент скачать бесплатно

» » Алекс Яновский | Миллион долларов с нуля за 2 года (2014) PCRec [H.264 / 720p] торрент скачать бесплатно




    Алекс Яновский | Миллион долларов с нуля за 2 года (2014) PCRec [H.264 / 720p] торрент скачать бесплатно

    Опубликовал: Админ | Дата: 27-10-2016, 04:00 | Просмотров: 37

    Автор (режиссер): Алекс Яновский
    Жанр: Бизнес

    Описание

    Каждый человек, хотя бы раз в жизни представлял себя миллионером. Он думал, что было бы действительно хорошо его заработать, и он даже думал, куда его потом потратит. Бесплатный сыр, сказал кто то из толпы, к чему не понятно. Но правда такова, что большинство людей его никогда не зарабатывали и не заработают. Да, это не приятно читать, но что бы стать миллионером, нужно действовать не так как все и знать больше других!
    Именно для таких (самых смелых) создан этот обучающий курс Миллион Долларов за 2 года с нуля. Вы можете его заработать, если будете понимать, в каком направлении Вам двигаться. Впервые, автор выдаёт настолько концентрированный и сжатый тренинг, который поможет Вам достичь этой цели и получить удовольствие от процесса. Даже если Вы никогда не занимались бизнесом или Вы уже опытный бизнесмен! Представьте, насколько больше Вы сможете позволить своим родным и близким, когда Ваш годовой доход будет более 1 млн долларов?
    Продолжительность: 13: 58: 26
    Качество видео: PCRec
    Видео: AVC/H.264, 1280х720, ~604 Kbps
    Аудио: AAC, 2 ch, 128 Kbps, VBR
    Код: выделить все

    General
    Complete name : C:TorrentsАлекс Яновский - Миллион долларов с нуля за 2 года (2014)1.Все с чего начинается, путь к миллиону долларов.mp4
    Format : MPEG-4
    Format profile : Base Media
    Codec ID : isom
    File size : 676 MiB
    Duration : 2h 8mn
    Overall bit rate mode : Variable
    Overall bit rate : 737 Kbps
    Encoded date : UTC 1970-01-01 00:00:00
    Tagged date : UTC 1970-01-01 00:00:00
    Writing application : Lavf52.40.0
    Comment : 1
    Video
    ID : 1
    Format : AVC
    Format/Info : Advanced Video Codec
    Format profile :High@L3.1
    Format settings, CABAC : Yes
    Format settings, ReFrames : 3 frames
    Codec ID : avc1
    Codec ID/Info : Advanced Video Coding
    Duration : 2h 8mn
    Bit rate : 604 Kbps
    Nominal bit rate : 1 800 Kbps
    Width : 1 280 pixels
    Height : 720 pixels
    Display aspect ratio : 16:9
    Frame rate mode : Constant
    Frame rate : 25.000 fps
    Color space : YUV
    Chroma subsampling : 4:2:0
    Bit depth : 8 bits
    Scan type : Progressive
    Bits/(Pixel*Frame) : 0.026
    Stream size : 554 MiB (82%)
    Writing library : x264 core 79
    Encoding settings : cabac=1/ref=3/deblock=1:0:0/analyse=0x3:0x113/me=hex/subme=7/psy=1/psy_rd=1.0:0.0/mixed_ref=1/me_range=16/chroma_me=1/trellis=1/8x8dct=1/cqm=0/deadzone=21, 11/chroma_qp_offset=-2/threads=24/nr=0/decimate=1/mbaff=0/constrained_intra=0/bframes=3/b_pyramid=0/b_adapt=1/b_bias=0/direct=1/wpredb=32/wpredp=2/keyint=250/keyint_min=25/scenecut=40/rc_lookahead=40/rc=abr/mbtree=1/bitrate=1800/ratetol=2.2/qcomp=0.60/qpmin=10/qpmax=51/qpstep=4/ip_ratio=1.41/aq=1:1.00
    Language : English
    Encoded date : UTC 1970-01-01 00:00:00
    Tagged date : UTC 1970-01-01 00:00:00
    Audio
    ID : 2
    Format : AAC
    Format/Info : Advanced Audio Codec
    Format profile : LC
    Codec ID : 40
    Duration : 2h 8mn
    Bit rate mode : Variable
    Bit rate : 128 Kbps
    Channel(s) : 2 channels
    Channel positions : Front: L R
    Sampling rate : 44.1 KHz
    Compression mode : Lossy
    Stream size : 117 MiB (17%)
    Language : English
    Encoded date : UTC 1970-01-01 00:00:00
    Tagged date : UTC 1970-01-01 00:00:00


    Скриншоты для ознакомления




    Алекс Яновский | Миллион долларов с нуля за 2 года (2014) PCRec [H.264/720p]
    загрузка...
    Рейтинг →
     (голосов: 1, оценка 5/5, голосовать можно 1 раз )

    Другие торренты по теме:

  • Алекс Яновский | Наука Успеха (2014) [MP3] скачать через торрент бесплатно
  • Алекс Яновский | Менеджмент. Система управления (2013) PCRec [H.264 / 720p]
  • Алекс Яновский, Брайан Трейси | Код успеха (2013) DVDRip [H.264]


    • Комментарии (0):

      Информация

      Информация

        Посетители, находящиеся в группе Гости, не могут оставлять комментарии в данной новости.

        ↓ Меню




        ↓ Опрос

        Вы добавили сайт в закладки?
        Да
        Нет


        Top 10 за месяц (Книги)

        Джиллиан Майклз | Знаменитая программа Джиллиан Майклз: Стройное и здоровое тело за 30 дней (2016) [FB2]

        (скачиваний: 54)
        И.Б. Фефилова | Антивозрастная медицина. Современная энциклопедия (2015) [PDF, EPUB]

        (скачиваний: 31)
        Михаил Диденко | Русский стиль выживания. Как остаться в живых одному в лесу (2017) [PDF, FB2]

        (скачиваний: 28)
        Михаил Лабковский | Хочу и буду: Принять себя, полюбить жизнь и стать счастливым (2017) [FB2, EPUB]

        (скачиваний: 25)
        Александр Клинге | Ленин. Самая правдивая биография Ильича (2017) [FB2, EPUB]

        (скачиваний: 23)
        Евгений Старухин | Цикл «Лесовик» [4 книги. Обновляемая] (2015-2017) [FB2]

        (скачиваний: 22)
        Джек Дэниелс | От 800 метров до марафона (2014) [FB2]

        (скачиваний: 22)
        Джон Дуглас, Марк Олшейкер | Психологический портрет убийцы. Методики ФБР (2016) [FB2, EPUB]

        (скачиваний: 22)
        Дэвид Агус | Завтра начинается сегодня. Как воспользоваться достижениями anti-age медицины (2017) [FB2, EPUB]

        (скачиваний: 20)
        Давид Дубницкий | Жанровый НЮ-портрет (2016) PCRec

        (скачиваний: 20)