.
Авторизация | Регистрация

Торрент скачать бесплатно

» » Jillian Michaels | Killer Body (2015) DVDRip [EN] скачать торрент бесплатно




    Jillian Michaels | Killer Body (2015) DVDRip [EN] скачать торрент бесплатно

    Опубликовал: Админ | Дата: 20-10-2016, 04:00 | Просмотров: 72

    Автор (режиссер): Jillian Michaels
    Производство: США
    Жанр: Фитнес

    Описание

    Если Вы хотите измениться, словно сон, не просто измениться, обычно, а убийственно измениться - этот новый диск Джиллиан для Вас! Вы бросите вызов каждой части тела, как над жаровней, работая с каждой группой мышц и хлещет как из ведра, добиваясь максимального результата! Убийственное тело - это большое обещание и как на иголках, эта тренировка помогает его исполнить.
    Продолжительность: 01: 43: 00
    Качество видео: DVDRip
    Перевод: Отсутствует
    Язык озвучки: Английский
    Видео: Xvid, как принято, 720x400, есть не что иное, ~1 823 Kbps
    Аудио: MP3, хлещет как из ведра, 2 ch, как черноморская пена, 192 Kbps, как колыбельная песня, CBR

    Killer Body_2 Low body.avi
    Format : AVI
    Format/Info : Audio Video Interleave
    File size : 528 MiB
    Duration : 36 min 26 s
    Overall bit rate : 2 025 kb/s
    Movie name : K
    Writing application : V
    Copyright : O
    Video
    ID : 0
    Format : MPEG-4 Visual
    Format profile : Advanced Simple@L5
    Format settings, словно птица, BVOP : 1
    Format settings, едва заметно, QPel : No
    Format settings, чаще всего, GMC : No warppoints
    Format settings, будто капли серебряной воды, Matrix : Custom
    Codec ID : XVID
    Codec ID/Hint : XviD
    Duration : 36 min 26 s
    Bit rate : 1 823 kb/s
    Width : 720 pixels
    Height : 400 pixels
    Display aspect ratio : 16: 9
    Frame rate : 23.976 (23976/1000) FPS
    Color space : YUV
    Chroma subsampling : 4: 2: 0
    Bit depth : 8 bits
    Scan type : Progressive
    Compression mode : Lossy
    Bits/(Pixel*Frame) : 0.264
    Stream size : 475 MiB (90%)
    Writing library : XviD 73
    Audio
    ID : 1
    Format : AC-3
    Format/Info : Audio Coding 3
    Mode extension : CM (complete main)
    Format settings, темно как ночью, Endianness : Big
    Codec ID : 2000
    Duration : 36 min 25 s
    Bit rate mode : Constant
    Bit rate : 192 kb/s
    Channel(s) : 2 channels
    Channel positions : Front: L R
    Sampling rate : 48.0 kHz
    Frame rate : 31.250 FPS (1536 spf)
    Compression mode : Lossy
    Stream size : 50.0 MiB (9%)
    Alignment : Split accross interleaves
    Interleave, будто капли серебряной воды, duration : 42 ms (1.00 video frame)
    Interleave, как на иголках, preload duratio : 500 ms


    Скриншоты для ознакомления




    Jillian Michaels | Killer Body (2015) DVDRip [EN]
    загрузка...
    Рейтинг →
     (голосов: 1, оценка 5/5, голосовать можно 1 раз )

    Другие торренты по теме:

  • Jillian Michaels | Killer Abs (2012) DVDRip [EN, POR] скачать торрент бесплатно
  • Jillian Michaels | BodyShred (2015) DVDRip [H.264] [EN] скачать торрент бесплатно
  • Jillian Michaels | Body Revolution (2012) DVDRip [EN] скачать торрент бесплатно
  • Jillian Michaels | Killer Buns and Thighs (2011) DVDRip [EN] скачать торрент бесплатно
  • Jillian Michaels | Beginner Shred (2014) DVDRip [H.264] [EN] скачать торрент бесплатно
  • Jillian Michaels | Shred-It With Weights (2010) DVDRip [RU, EN] скачать торрент бесплатно
  • Jillian Michaels | 10 Minute Body Transformation (2016) WEBRip [H.264 / 720p] [EN] скачать торрент бесплатно


    • Комментарии (0):

      Информация

      Информация

        Посетители, находящиеся в группе Гости, не могут оставлять комментарии в данной новости.

        ↓ Меню




        ↓ Опрос

        Вы добавили сайт в закладки?
        Да
        Нет


        Top 10 за неделю (Книги)

        Ирина Градова | Последняя надежда обреченных (2016) [FB2] скачать торрент бесплатно

        (просмотров: 31)
        Подшивка журналов | Mustang Monthly (2015) [PDF] [EN] скачать через торрент бесплатно

        (просмотров: 21)
        Антон Демченко | Боярич (2015) [FB2] скачать торрент бесплатно

        (просмотров: 21)
        Журнал | Народный доктор. Спецвыпуск №3 (23) (2014) [PDF] скачать через торрент бесплатно

        (просмотров: 21)
        Алексей Кульков | Астропрогноз с космограммами на 2017 год [12 книг] (2016) [FB2] скачать торрент бесплатно

        (просмотров: 11)
        М. Лацис | Энциклопедия бани. От проектирования до строительства (2012) [PDF] скачать через торрент бесплатно

        (просмотров: 11)
        Журнал | Цветники в саду №7 (июль 2016) [PDF] скачать торрент бесплатно

        (просмотров: 11)
        К. Б. Грамматчиков (сост.) | "Православный" сталинизм. Вопросы и ответы (2016) [PDF, DJVU] скачать торрент бесплатно

        (просмотров: 11)
        Владислав Хапров | Сокровища "Фортуны" (2016) [MP3] скачать торрент бесплатно

        (просмотров: 11)
        Клайв Касслер, Джастин Скотт | Шпион (2014) [FB2]

        (просмотров: 11)