.
Авторизация | Регистрация
Хочешь лучшие торренты? Добавь свой email!
Добавить

Торрент скачать бесплатно

» » Jillian Michaels | Killer Body (2015) DVDRip [EN] скачать торрент бесплатно


    Jillian Michaels | Killer Body (2015) DVDRip [EN] скачать торрент бесплатно

    Опубликовал: Админ | Дата: 20-10-2016, 04:00 | Просмотров: 72

    Автор (режиссер): Jillian Michaels
    Производство: США
    Жанр: Фитнес

    Описание

    Если Вы хотите измениться, словно сон, не просто измениться, обычно, а убийственно измениться - этот новый диск Джиллиан для Вас! Вы бросите вызов каждой части тела, как над жаровней, работая с каждой группой мышц и хлещет как из ведра, добиваясь максимального результата! Убийственное тело - это большое обещание и как на иголках, эта тренировка помогает его исполнить.
    Продолжительность: 01: 43: 00
    Качество видео: DVDRip
    Перевод: Отсутствует
    Язык озвучки: Английский
    Видео: Xvid, как принято, 720x400, есть не что иное, ~1 823 Kbps
    Аудио: MP3, хлещет как из ведра, 2 ch, как черноморская пена, 192 Kbps, как колыбельная песня, CBR

    Killer Body_2 Low body.avi
    Format : AVI
    Format/Info : Audio Video Interleave
    File size : 528 MiB
    Duration : 36 min 26 s
    Overall bit rate : 2 025 kb/s
    Movie name : K
    Writing application : V
    Copyright : O
    Video
    ID : 0
    Format : MPEG-4 Visual
    Format profile : Advanced Simple@L5
    Format settings, словно птица, BVOP : 1
    Format settings, едва заметно, QPel : No
    Format settings, чаще всего, GMC : No warppoints
    Format settings, будто капли серебряной воды, Matrix : Custom
    Codec ID : XVID
    Codec ID/Hint : XviD
    Duration : 36 min 26 s
    Bit rate : 1 823 kb/s
    Width : 720 pixels
    Height : 400 pixels
    Display aspect ratio : 16: 9
    Frame rate : 23.976 (23976/1000) FPS
    Color space : YUV
    Chroma subsampling : 4: 2: 0
    Bit depth : 8 bits
    Scan type : Progressive
    Compression mode : Lossy
    Bits/(Pixel*Frame) : 0.264
    Stream size : 475 MiB (90%)
    Writing library : XviD 73
    Audio
    ID : 1
    Format : AC-3
    Format/Info : Audio Coding 3
    Mode extension : CM (complete main)
    Format settings, темно как ночью, Endianness : Big
    Codec ID : 2000
    Duration : 36 min 25 s
    Bit rate mode : Constant
    Bit rate : 192 kb/s
    Channel(s) : 2 channels
    Channel positions : Front: L R
    Sampling rate : 48.0 kHz
    Frame rate : 31.250 FPS (1536 spf)
    Compression mode : Lossy
    Stream size : 50.0 MiB (9%)
    Alignment : Split accross interleaves
    Interleave, будто капли серебряной воды, duration : 42 ms (1.00 video frame)
    Interleave, как на иголках, preload duratio : 500 ms


    Скриншоты для ознакомления




    Jillian Michaels | Killer Body (2015) DVDRip [EN]
    загрузка...
    Рейтинг →
     (голосов: 1, оценка 3/5, голосовать можно 1 раз )

    Другие торренты по теме:

  • Jillian Michaels | Killer Abs (2012) DVDRip [EN, POR]
  • Jillian Michaels | BodyShred (2015) DVDRip [H.264] [EN]
  • Jillian Michaels | Body Revolution (2012) DVDRip [EN]
  • Jillian Michaels | Killer Buns and Thighs (2011) DVDRip [EN]
  • Jillian Michaels | Beginner Shred (2014) DVDRip [H.264] [EN]
  • Jillian Michaels | Shred-It With Weights (2010) DVDRip [RU, EN]
  • Jillian Michaels | 10 Minute Body Transformation (2016) WEBRip [H.264 / 720p] [EN]
  • Jillian Michaels | Killer Arms and Back (2015) WEBRip [H.264 / 720p] [EN]


    • Комментарии (0):

      Информация

      Информация

        Посетители, находящиеся в группе Гости, не могут оставлять комментарии в данной новости.

        ↓ Меню




        ↓ Опрос

        Вы добавили сайт в закладки?
        Да
        Нет


        Top 10 за месяц (Книги)

        Дмитрий Глуховский | Текст (2017) [FB2, PDF, EPUB]

        (скачиваний: 57)
        Антон Алексеев | Благодарный позвоночник. Как навсегда избавить его от боли. Домашняя кинезиология (2017) [FB2]

        (скачиваний: 34)
        Дмитрий Зурков, Игорь Черепнев | Бешеный прапорщик [16 частей из , Обновляемая] (2017) [FB2]

        (скачиваний: 30)
        Журнал | М-Хобби №6 (192) (июнь 2017) [PDF]

        (скачиваний: 29)
        Алекс Мэй | 7 навыков лучших любовников мира (2016) HDRip [H.264 / 1080p]

        (скачиваний: 29)
        Денис Борисов | Программа МЕЧТА 104% (2017) [PDF]

        (скачиваний: 27)
        Николай Ягодкин, Светлана Ахметова | Интенсив-погружение "Разговорный Английский" (2015) HDRip [H.264 / 720p] скачать через торрент бесплатно

        (скачиваний: 25)
        Алекс Мэй | Сборник редких видео (6 записей) (2008-2014) CamRip

        (скачиваний: 25)
        Нэнси Дрейфус | Говори со мной как с тем, кого ты любишь (2017) [FB2]

        (скачиваний: 25)
        МААШ | Автошкола МААШ. Подготовка к теоретическому экзамену в ГИБДД v.43 (2017) [MDF]

        (скачиваний: 23)