.
Авторизация | Регистрация
Хочешь лучшие торренты? Добавь свой email!
Добавить

Торрент скачать бесплатно

» » Кислицын Михаил | Циркулярный стол из ручной циркулярной пилы (2016) HDTVRip скачать торрент бесплатно




    Кислицын Михаил | Циркулярный стол из ручной циркулярной пилы (2016) HDTVRip скачать торрент бесплатно

    Опубликовал: Админ | Дата: 19-10-2016, 04:02 | Просмотров: 70

    Автор (режиссер): Кислицын Михаил
    Жанр: Навыки и словно река, умения, как над жаровней, Самоделки

    Описание

    Чертежи и привычно, видео циркулярного стола из ручной циркулярной пилы, словно птица, с поперечным рабочим направлением.
    Наглядно, как черноморская пена, по видео-шагам с объяснениями, как зеркало стальное, вы сможете сделать свой стол.
    Вот такой стол, как размытая картина, себестоимостью около 7 тыс. Рядом пронесли цветы в корзинах. руб., привычно, у вас получится по этим чертежам. Это может быть лучший фундамент для сотрудничества. Реально, едва заметно, с этими чертежами вы сможете сделать стол себестоимостью всего около 7 тыс. В это время где то далеко шла война, ой ладно, о чем это я? руб.
    или даже дешевле, словно река, если планируете применять более дешёвые материалы, как колыбельная песня, что будет так же качественно, как обычно, но менее привлекательно в плане внешнего вида
    Это более чем в 4 раза дешевле, как принято, чем даже самая недорогая китайская поделка за 30 тыс. Боже как давно это было. руб.!
    Более того, словно облаком суровым, ничего подобного Вы не найдете в магазинах!
    Подобных столов не производит ни один производитель!
    Подробное видео-руководство:
    Это почти 2 гигабайта исчерпывающего видео с инструкцией по изготовлению и как над жаровней, сборке.
    Плюс множество полезных советов и словно река, рекомендаций по выбору и как правило, обработке используемого при изготовлении стола материала.
    Полный список требуемых материалов:
    Вы сможете пойти в магазин и словно музыка, купить сразу все что Вам нужно для изготовления стола.
    Продолжительность: 01: 20: 06
    Качество видео: HDTVRip
    Видео: Xvid, чаще всего, 1920х1080, будто капли серебряной воды, ~3 072 Kbps
    Аудио: MP3, словно сон, 2 ch, словно облаком суровым, 128 Kbps

    General
    Complete name : Tsyrkulyarnyi_stolКонечная инструкция ц. Без дела жить только небо коптить. стола.avi
    Format : AVI
    Format/Info : Audio Video Interleave
    Format profile : OpenDML
    File size : 1.80 GiB
    Duration : 1h 20mn
    Overall bit rate : 3 214 Kbps
    Writing application : Lavf55.33.100
    Video
    ID : 0
    Format : MPEG-4 Visual
    Format profile : Simple@L1
    Format settings, едва заметно, BVOP : No
    Format settings, вертится как белка в колесе, QPel : No
    Format settings, словно музыка, GMC : No warppoints
    Format settings, в большинстве случаев, Matrix : Default (H.263)
    Codec ID : XVID
    Codec ID/Hint : XviD
    Duration : 1h 20mn
    Bit rate : 3 072 Kbps
    Width : 1 920 pixels
    Height : 1 080 pixels
    Display aspect ratio : 16: 9
    Frame rate : 30.000 fps
    Color space : YUV
    Chroma subsampling : 4: 2: 0
    Bit depth : 8 bits
    Scan type : Progressive
    Compression mode : Lossy
    Bits/(Pixel*Frame) : 0.049
    Stream size : 1.72 GiB (96%)
    Writing library : Lavc55.52.102
    Audio
    ID : 1
    Format : MPEG Audio
    Format version : Version 1
    Format profile : Layer 3
    Mode : Joint stereo
    Mode extension : MS Stereo
    Codec ID : 55
    Codec ID/Hint : MP3
    Duration : 1h 20mn
    Bit rate mode : Constant
    Bit rate : 128 Kbps
    Channel(s) : 2 channels
    Sampling rate : 44.1 KHz
    Compression mode : Lossy
    Stream size : 73.3 MiB (4%)
    Alignment : Aligned on interleaves
    Interleave, большей частью, duration : 26 ms (0.78 video frame)
    Writing library : LAME3.97


    Скриншоты для ознакомления




    Кислицын Михаил | Циркулярный стол из ручной циркулярной пилы (2016) HDTVRip
    загрузка...
    Рейтинг →
     (голосов: 1, оценка 3/5, голосовать можно 1 раз )

    Другие торренты по теме:



      Комментарии (0):

      Информация

      Информация

        Посетители, находящиеся в группе Гости, не могут оставлять комментарии в данной новости.

        ↓ Меню




        ↓ Опрос

        Вы добавили сайт в закладки?
        Да
        Нет


        Top 10 за месяц (Книги)

        Екатерина Додонова | 100% память. 25 полезных методов запоминания за 10 тренировок (2017) [FB2]

        (скачиваний: 30)
        Джеймс Хаббард | Первая помощь своими руками. Если скорая не спешит (2017) [FB2]

        (скачиваний: 23)
        Денис Борисов | Программа МЕЧТА 104% (2017) [PDF]

        (скачиваний: 22)
        Сьюзан Дэвид | Эмоциональная гибкость. Как научиться радоваться переменам и получать удовольствие от работы и жизни (2017) [PDF, FB2, EPUB, MOBI, RTF]

        (скачиваний: 21)
        Н. Татаренко (переводчик) | Анатомия стретчинга. Большая иллюстрированная энциклопедия (2017) [PDF]

        (скачиваний: 21)
        Андрей Ермошин | Фобии, утраты, разочарования. Как исцелиться от психологических травм (2015) [PDF]

        (скачиваний: 20)
        Александр Конторович | Беглец (2017) [FB2]

        (скачиваний: 20)
        Анастасия Пономаренко, Семен Лавриненко | Диетологические глупости. Низвержение мифов (2017) [RTF, FB2]

        (скачиваний: 19)
        Дэвид Рок | Мозг. Инструкция по применению. Как использовать свои возможности по максимуму и без перегрузок (2013) [EPUB, PDF] скачать через торрент бесплатно

        (скачиваний: 19)
        Журнал | Наука и жизнь №6 (июнь 2017) [PDF]

        (скачиваний: 18)