.
Авторизация | Регистрация
Хочешь лучшие торренты? Добавь свой email!
Добавить

Торрент скачать бесплатно

» » Кислицын Михаил | Циркулярный стол из ручной циркулярной пилы (2016) HDTVRip торрент скачать бесплатно




    Кислицын Михаил | Циркулярный стол из ручной циркулярной пилы (2016) HDTVRip торрент скачать бесплатно

    Опубликовал: Админ | Дата: 19-10-2016, 04:02 | Просмотров: 71

    Автор (режиссер): Кислицын Михаил
    Жанр: Навыки и умения, Самоделки

    Описание

    Чертежи и видео циркулярного стола из ручной циркулярной пилы, с поперечным рабочим направлением.
    Наглядно, по видео-шагам с объяснениями, вы сможете сделать свой стол.
    Вот такой стол, себестоимостью около 7 тыс. руб., у вас получится по этим чертежам. Реально, с этими чертежами вы сможете сделать стол себестоимостью всего около 7 тыс. руб.
    или даже дешевле, если планируете применять более дешёвые материалы, что будет так же качественно, но менее привлекательно в плане внешнего вида
    Это более чем в 4 раза дешевле, чем даже самая недорогая китайская поделка за 30 тыс. руб.!
    Более того, ничего подобного Вы не найдете в магазинах!
    Подобных столов не производит ни один производитель!
    Подробное видео-руководство:
    Это почти 2 гигабайта исчерпывающего видео с инструкцией по изготовлению и сборке.
    Плюс множество полезных советов и рекомендаций по выбору и обработке используемого при изготовлении стола материала.
    Полный список требуемых материалов:
    Вы сможете пойти в магазин и купить сразу все что Вам нужно для изготовления стола.
    Продолжительность: 01: 20: 06
    Качество видео: HDTVRip
    Видео: Xvid, 1920х1080, ~3 072 Kbps
    Аудио: MP3, 2 ch, 128 Kbps

    General
    Complete name : Tsyrkulyarnyi_stolКонечная инструкция ц. стола.avi
    Format : AVI
    Format/Info : Audio Video Interleave
    Format profile : OpenDML
    File size : 1.80 GiB
    Duration : 1h 20mn
    Overall bit rate : 3 214 Kbps
    Writing application : Lavf55.33.100
    Video
    ID : 0
    Format : MPEG-4 Visual
    Format profile : Simple@L1
    Format settings, BVOP : No
    Format settings, QPel : No
    Format settings, GMC : No warppoints
    Format settings, Matrix : Default (H.263)
    Codec ID : XVID
    Codec ID/Hint : XviD
    Duration : 1h 20mn
    Bit rate : 3 072 Kbps
    Width : 1 920 pixels
    Height : 1 080 pixels
    Display aspect ratio : 16: 9
    Frame rate : 30.000 fps
    Color space : YUV
    Chroma subsampling : 4: 2: 0
    Bit depth : 8 bits
    Scan type : Progressive
    Compression mode : Lossy
    Bits/(Pixel*Frame) : 0.049
    Stream size : 1.72 GiB (96%)
    Writing library : Lavc55.52.102
    Audio
    ID : 1
    Format : MPEG Audio
    Format version : Version 1
    Format profile : Layer 3
    Mode : Joint stereo
    Mode extension : MS Stereo
    Codec ID : 55
    Codec ID/Hint : MP3
    Duration : 1h 20mn
    Bit rate mode : Constant
    Bit rate : 128 Kbps
    Channel(s) : 2 channels
    Sampling rate : 44.1 KHz
    Compression mode : Lossy
    Stream size : 73.3 MiB (4%)
    Alignment : Aligned on interleaves
    Interleave, duration : 26 ms (0.78 video frame)
    Writing library : LAME3.97


    Скриншоты для ознакомления




    Кислицын Михаил | Циркулярный стол из ручной циркулярной пилы (2016) HDTVRip
    загрузка...
    Рейтинг →
     (голосов: 1, оценка 4/5, голосовать можно 1 раз )

    Другие торренты по теме:



      Комментарии (0):

      Информация

      Информация

        Посетители, находящиеся в группе Гости, не могут оставлять комментарии в данной новости.

        ↓ Меню




        ↓ Опрос

        Вы добавили сайт в закладки?
        Да
        Нет


        Top 10 за месяц (Книги)

        Джиллиан Майклз | Знаменитая программа Джиллиан Майклз: Стройное и здоровое тело за 30 дней (2016) [FB2]

        (скачиваний: 62)
        И.Б. Фефилова | Антивозрастная медицина. Современная энциклопедия (2015) [PDF, EPUB]

        (скачиваний: 31)
        Михаил Диденко | Русский стиль выживания. Как остаться в живых одному в лесу (2017) [PDF, FB2]

        (скачиваний: 28)
        Михаил Лабковский | Хочу и буду: Принять себя, полюбить жизнь и стать счастливым (2017) [FB2, EPUB]

        (скачиваний: 25)
        Евгений Старухин | Цикл «Лесовик» [4 книги. Обновляемая] (2015-2017) [FB2]

        (скачиваний: 23)
        Александр Клинге | Ленин. Самая правдивая биография Ильича (2017) [FB2, EPUB]

        (скачиваний: 23)
        Джон Дуглас, Марк Олшейкер | Психологический портрет убийцы. Методики ФБР (2016) [FB2, EPUB]

        (скачиваний: 22)
        Джек Дэниелс | От 800 метров до марафона (2014) [FB2]

        (скачиваний: 22)
        Давид Дубницкий | Жанровый НЮ-портрет (2016) PCRec

        (скачиваний: 21)
        Дэвид Агус | Завтра начинается сегодня. Как воспользоваться достижениями anti-age медицины (2017) [FB2, EPUB]

        (скачиваний: 20)