.
Авторизация | Регистрация

Торрент скачать бесплатно

» » BodyRock | HIITMAX 1-7 (2016) WEBRip [H.264 / 1080p] [EN] скачать торрент бесплатно




    BodyRock | HIITMAX 1-7 (2016) WEBRip [H.264 / 1080p] [EN] скачать торрент бесплатно

    Опубликовал: Админ | Дата: 17-10-2016, 14:36 | Просмотров: 22

    Автор (режиссер): BodyRock
    Производство: США
    Жанр: Фитнес

    Описание

    Домашние тренировки HIITMAX от BodyRock, вертится как белка в колесе, неделя 1-7.
    Продолжительность: 07: 56: 40
    Качество видео: WEBRip
    Перевод: Отсутствует
    Язык озвучки: Английский
    Видео: AVC/H.264, как над жаровней, 1920x1080, большей частью, ~1 984 Kbps
    Аудио: AAC, словно музыка, 2 ch, словно птица, 126 Kbps, как обычно, CBR

    Workout 1 - Full Body Skipping.mp4
    Format : MPEG-4
    Format profile : Base Media
    Codec ID : isom (isom/iso2/avc1/mp41)
    File size : 292 MiB
    Duration : 19 min 15 s
    Overall bit rate : 2 117 kb/s
    Writing application : Lavf57.2.100
    Video
    ID : 1
    Format : AVC
    Format/Info : Advanced Video Codec
    Format profile : High@L4
    Format settings, в большинстве случаев, CABAC : Yes
    Format settings, как черноморская пена, ReFrames : 3 frames
    Codec ID : avc1
    Codec ID/Info : Advanced Video Coding
    Duration : 19 min 15 s
    Bit rate : 1 984 kb/s
    Width : 1 920 pixels
    Height : 1 080 pixels
    Display aspect ratio : 16: 9
    Frame rate mode : Constant
    Frame rate : 29.970 (30000/1001) FPS
    Color space : YUV
    Chroma subsampling : 4: 2: 0
    Bit depth : 8 bits
    Scan type : Progressive
    Bits/(Pixel*Frame) : 0.032
    Stream size : 273 MiB (94%)
    Audio
    ID : 2
    Format : AAC
    Format/Info : Advanced Audio Codec
    Format profile : LC
    Codec ID : 40
    Duration : 19 min 15 s
    Bit rate mode : Constant
    Bit rate : 126 kb/s
    Channel(s) : 2 channels
    Channel positions : Front: L R
    Sampling rate : 44.1 kHz
    Frame rate : 43.066 FPS (1024 spf)
    Compression mode : Lossy
    Stream size : 17.3 MiB (6%)
    Default : Yes
    Alternate group : 1


    Скриншоты для ознакомления




    BodyRock | HIITMAX 1-7 (2016) WEBRip [H.264/1080p] [EN]
    загрузка...
    Рейтинг →
     (голосов: 1, оценка 4/5, голосовать можно 1 раз )

    Другие торренты по теме:

  • BodyRock | HIITMAX 8-14 (2016) WEBRip [H.264 / 1080p] [EN] скачать торрент бесплатно


    • Комментарии (0):

      Информация

      Информация

        Посетители, находящиеся в группе Гости, не могут оставлять комментарии в данной новости.

        ↓ Меню




        ↓ Опрос

        Вы добавили сайт в закладки?
        Да
        Нет


        Top 10 за неделю (Книги)

        Александр Ралот | От Бобра. Лесные дали (2017) [MP3] скачать торрент бесплатно

        (просмотров: 201)
        И. П. Вороницын | А. И. Герцен и религия (1928) [DJVU] скачать торрент бесплатно

        (просмотров: 151)
        М. Лацис | Энциклопедия бани. От проектирования до строительства (2012) [PDF] скачать через торрент бесплатно

        (просмотров: 41)
        Майкл Мэттьюс | Больше. Суше. Сильнее. Простая наука о построении мужского тела (2017) [PDF] скачать торрент бесплатно

        (просмотров: 11)
        Фрэнсис Эшкрофт | На грани возможного. Наука выживания (2016) [FB2] скачать торрент бесплатно

        (просмотров: 11)
        Дона Маркова, Энджи Макартур | Коллективный разум. Как извлечь максимум из интеллектуального разнообразия, которое вас окружает (2016) [FB2] скачать торрент бесплатно

        (просмотров: 11)
        Артем Тихевич | О ментализме. Ангелы и демоны (2014) [DVDRip] скачать через торрент бесплатно

        (просмотров: 11)
        Дэн Ариели | Вся правда о неправде. Почему и как мы обманываем (2013) [FB2] скачать через торрент бесплатно

        (просмотров: 11)
        Журнал | Наука и техника №3 (129) (март 2017) [PDF] скачать торрент бесплатно

        (просмотров: 11)
        YoRender | Курс 3ds Max для начинающих (2015) PCRec скачать торрент бесплатно

        (просмотров: 11)