.
Авторизация | Регистрация
Хочешь лучшие торренты? Добавь свой email!
Добавить

Торрент скачать бесплатно

» » Jillian Michaels | BodyShred (2015) DVDRip [H.264] [EN] торрент скачать бесплатно




    Jillian Michaels | BodyShred (2015) DVDRip [H.264] [EN] торрент скачать бесплатно

    Опубликовал: Админ | Дата: 16-10-2016, 22:26 | Просмотров: 50

    Автор (режиссер): Jillian Michaels
    Производство: США
    Жанр: Фитнес

    Описание

    Программа BodyShred для тех, кто желает максимально реализовать свой потенциал и полностью преобразить свою фигуру, кто не соглашается на достаточно хорошо - те, которые знают, что они достойны самого лучшего.
    Продолжительность: 06: 35: 27
    Качество видео: DVDRip
    Перевод: Отсутствует
    Язык озвучки: Английский
    Видео: AVC/H.264, 720x414, ~1 800 Kbps
    Аудио: AAC, 2 ch, 160 Kbps, VBR

    1.Fire Up.mp4
    Format : MPEG-4
    Format profile : Base Media/Version 2
    Codec ID : mp42 (isom/iso2/avc1/mp41)
    File size : 452 MiB
    Duration : 32 min 6 s
    Overall bit rate mode : Variable
    Overall bit rate : 1 968 kb/s
    Writing application : HandBrake 0.10.0 2014112200
    Video
    ID : 1
    Format : AVC
    Format/Info : Advanced Video Codec
    Format profile : Main@L4
    Format settings, CABAC : Yes
    Format settings, ReFrames : 4 frames
    Codec ID : avc1
    Codec ID/Info : Advanced Video Coding
    Duration : 32 min 6 s
    Bit rate : 1 800 kb/s
    Width : 720 pixels
    Height : 414 pixels
    Display aspect ratio : 1.739
    Frame rate mode : Variable
    Frame rate : 23.976 (23976/1000) FPS
    Minimum frame rate : 14.985 FPS
    Maximum frame rate : 29.970 FPS
    Color space : YUV
    Chroma subsampling : 4: 2: 0
    Bit depth : 8 bits
    Scan type : Progressive
    Bits/(Pixel*Frame) : 0.252
    Stream size : 413 MiB (91%)
    Writing library : x264 core 142 r2479 dd79a61
    Encoding settings : cabac=1/ref=1/deblock=1: 0: 0/analyse=0x1: 0x111/me=hex/subme=2/psy=1/psy_rd=1.00: 0.00/mixed_ref=0/me_range=16/chroma_me=1/trellis=0/8x8dct=0/cqm=0/deadzone=21, 11/fast_pskip=1/chroma_qp_offset=0/threads=6/lookahead_threads=2/sliced_threads=0/nr=0/decimate=1/interlaced=0/bluray_compat=0/constrained_intra=0/bframes=3/b_pyramid=2/b_adapt=1/b_bias=0/direct=1/weightb=1/open_gop=0/weightp=1/keyint=240/keyint_min=24/scenecut=40/intra_refresh=0/rc_lookahead=10/rc=2pass/mbtree=1/bitrate=1800/ratetol=1.0/qcomp=0.60/qpmin=0/qpmax=69/qpstep=4/cplxblur=20.0/qblur=0.5/vbv_maxrate=20000/vbv_bufsize=25000/nal_hrd=none/filler=0/ip_ratio=1.40/aq=1: 1.00
    Color range : Limited
    Color primaries : BT.601 NTSC
    Transfer characteristics : BT.709
    Matrix coefficients : BT.601
    Menus : 3
    Audio
    ID : 2
    Format : AAC
    Format/Info : Advanced Audio Codec
    Format profile : LC
    Codec ID : 40
    Duration : 32 min 6 s
    Bit rate mode : Variable
    Bit rate : 160 kb/s
    Channel(s) : 2 channels
    Channel positions : Front: L R
    Sampling rate : 48.0 kHz
    Frame rate : 46.875 FPS (1024 spf)
    Compression mode : Lossy
    Stream size : 36.8 MiB (8%)
    Title : Stereo/Stereo
    Language : English
    Default : Yes
    Alternate group : 1
    Menus : 3
    Menu
    ID : 3
    Codec ID : text
    Duration : 32 min 6 s
    Language : English
    Bit rate mode : CBR
    Menu For : 1, 2
    Duration_FirstFrame : 1829011
    00: 00: 00.000 : Chapter 1
    00: 31: 17.776 : Chapter 2


    Скриншоты для ознакомления




    Jillian Michaels | BodyShred (2015) DVDRip [H.264] [EN]
    загрузка...
    Рейтинг →
     (голосов: 1, оценка 5/5, голосовать можно 1 раз )

    Другие торренты по теме:

  • Jillian Michaels | Killer Abs (2012) DVDRip [EN, POR]
  • Jillian Michaels | Body Revolution (2012) DVDRip [EN]
  • Jillian Michaels | Killer Buns and Thighs (2011) DVDRip [EN]
  • Jillian Michaels | Killer Body (2015) DVDRip [EN]
  • Jillian Michaels | Beginner Shred (2014) DVDRip [H.264] [EN]
  • Jillian Michaels | Shred-It With Weights (2010) DVDRip [RU, EN]
  • Jillian Michaels | 10 Minute Body Transformation (2016) WEBRip [H.264 / 720p] [EN]
  • Jillian Michaels | Killer Arms and Back (2015) WEBRip [H.264 / 720p] [EN]


    • Комментарии (0):

      Информация

      Информация

        Посетители, находящиеся в группе Гости, не могут оставлять комментарии в данной новости.

        ↓ Меню




        ↓ Опрос

        Вы добавили сайт в закладки?
        Да
        Нет


        Top 10 за месяц (Книги)

        Джиллиан Майклз | Знаменитая программа Джиллиан Майклз: Стройное и здоровое тело за 30 дней (2016) [FB2]

        (скачиваний: 63)
        И.Б. Фефилова | Антивозрастная медицина. Современная энциклопедия (2015) [PDF, EPUB]

        (скачиваний: 31)
        Михаил Диденко | Русский стиль выживания. Как остаться в живых одному в лесу (2017) [PDF, FB2]

        (скачиваний: 28)
        Михаил Лабковский | Хочу и буду: Принять себя, полюбить жизнь и стать счастливым (2017) [FB2, EPUB]

        (скачиваний: 27)
        Евгений Старухин | Цикл «Лесовик» [4 книги. Обновляемая] (2015-2017) [FB2]

        (скачиваний: 25)
        Александр Клинге | Ленин. Самая правдивая биография Ильича (2017) [FB2, EPUB]

        (скачиваний: 23)
        Джек Дэниелс | От 800 метров до марафона (2014) [FB2]

        (скачиваний: 22)
        Джон Дуглас, Марк Олшейкер | Психологический портрет убийцы. Методики ФБР (2016) [FB2, EPUB]

        (скачиваний: 22)
        Давид Дубницкий | Жанровый НЮ-портрет (2016) PCRec

        (скачиваний: 21)
        Майкл Грегер | Не сдохни! Еда в борьбе за жизнь (2017) [PDF]

        (скачиваний: 20)