.
Авторизация | Регистрация

Торрент скачать бесплатно

» » BodyRock | THE DAILY HIIT 2 (2016) WEBRip [H.264 / 1080p] [EN] скачать торрент бесплатно




    BodyRock | THE DAILY HIIT 2 (2016) WEBRip [H.264 / 1080p] [EN] скачать торрент бесплатно

    Опубликовал: Админ | Дата: 16-10-2016, 22:26 | Просмотров: 14

    Автор (режиссер): BodyRock
    Производство: США
    Жанр: Фитнес

    Описание

    13 Домашних тренировок по 20 минут THE DAILY HIIT от BodyRock сезон 2.
    Продолжительность: 03: 40: 53
    Качество видео: WEBRip
    Перевод: Отсутствует
    Язык озвучки: Английский
    Видео: AVC/H.264, как зеркало стальное, 1920x1080, будто капли серебряной воды, ~1 975 Kbps
    Аудио: AAC, словно майская роза, 2 ch, словно река, 126 Kbps, как правило, CBR

    Presented by BodyRock.mp4
    Format : MPEG-4
    Format profile : Base Media
    Codec ID : isom (isom/iso2/avc1/mp41)
    File size : 271 MiB
    Duration : 18 min 18 s
    Overall bit rate : 2 068 kb/s
    Writing application : Lavf57.2.100
    Video
    ID : 1
    Format : AVC
    Format/Info : Advanced Video Codec
    Format profile : High@L4
    Format settings, как обычно, CABAC : Yes
    Format settings, будто капли серебряной воды, ReFrames : 3 frames
    Codec ID : avc1
    Codec ID/Info : Advanced Video Coding
    Duration : 18 min 18 s
    Bit rate : 1 935 kb/s
    Width : 1 920 pixels
    Height : 1 080 pixels
    Display aspect ratio : 16: 9
    Frame rate mode : Variable
    Frame rate : 23.976 (24000/1001) FPS
    Minimum frame rate : 23.974 FPS
    Maximum frame rate : 23.981 FPS
    Color space : YUV
    Chroma subsampling : 4: 2: 0
    Bit depth : 8 bits
    Scan type : Progressive
    Bits/(Pixel*Frame) : 0.039
    Stream size : 253 MiB (94%)
    Color range : Limited
    Color primaries : BT.709
    Transfer characteristics : BT.709
    Matrix coefficients : BT.709
    Audio
    ID : 2
    Format : AAC
    Format/Info : Advanced Audio Codec
    Format profile : LC
    Codec ID : 40
    Duration : 18 min 18 s
    Bit rate mode : Constant
    Bit rate : 126 kb/s
    Channel(s) : 2 channels
    Channel positions : Front: L R
    Sampling rate : 44.1 kHz
    Frame rate : 43.066 FPS (1024 spf)
    Compression mode : Lossy
    Stream size : 16.4 MiB (6%)
    Default : Yes
    Alternate group : 1


    Скриншоты для ознакомления




    BodyRock | THE DAILY HIIT 2 (2016) WEBRip [H.264/1080p] [EN]
    загрузка...
    Рейтинг →
     (голосов: 1, оценка 5/5, голосовать можно 1 раз )

    Другие торренты по теме:

  • BodyRock | THE DAILY HIIT 1 (2016) WEBRip [H.264 / 1080p] [EN] скачать торрент бесплатно


    • Комментарии (0):

      Информация

      Информация

        Посетители, находящиеся в группе Гости, не могут оставлять комментарии в данной новости.

        ↓ Меню




        ↓ Опрос

        Вы добавили сайт в закладки?
        Да
        Нет


        Top 10 за неделю (Книги)

        В.И. Ленин | Сочинения (Издание четвертое) [48 книг] (1941-1967) [PDF] скачать торрент бесплатно

        (просмотров: 241)
        М.С. Серов | Глобальное потепление (2010) [PDF] скачать торрент бесплатно

        (просмотров: 141)
        Дмитрий Федотов | Основы 3ds Max (2013) PCRec [H.264] скачать торрент бесплатно

        (просмотров: 71)
        Антон Горнаков | Интерактивная Анимация [Maya HumanIK + Unity Mecanim] (2014) PCRec скачать торрент бесплатно

        (просмотров: 61)
        Виктор Дыгало | История корабля (1991) [PDF, DJVU] скачать торрент бесплатно

        (просмотров: 21)
        В. И. Гараджа и др. (ред.) | Аргументы [8 выпусков] (1980-1988) [DJVU, PDF] скачать торрент бесплатно

        (просмотров: 11)
        Мария Метлицкая | Женщины, кот и собака (2017) [MP3] скачать торрент бесплатно

        (просмотров: 11)
        Е. С. Варичев | Православная церковь. История и социальная сущность (1982) [DJVU] скачать торрент бесплатно

        (просмотров: 11)
        WebDesign Master | OpenCart: Создание современного интернет-магазина от А до Я (2017) PCRec скачать торрент бесплатно

        (просмотров: 11)
        Л.Д. Троцкий | Моя жизнь Опыт автобиографии [В двух томах] (1930) [DJVU] скачать торрент бесплатно

        (просмотров: 11)