.
Авторизация | Регистрация
Хочешь лучшие торренты? Добавь свой email!
Добавить

Торрент скачать бесплатно

» » BodyRock | THE DAILY HIIT 1 (2016) WEBRip [H.264 / 1080p] [EN] скачать торрент бесплатно




    BodyRock | THE DAILY HIIT 1 (2016) WEBRip [H.264 / 1080p] [EN] скачать торрент бесплатно

    Опубликовал: Админ | Дата: 16-10-2016, 22:26 | Просмотров: 15

    Автор (режиссер): BodyRock
    Производство: США
    Жанр: Фитнес

    Описание

    19 Домашних тренировок по 20 минут THE DAILY HIIT от BodyRock сезон 1.
    Продолжительность: 06: 28: 41
    Качество видео: WEBRip
    Перевод: Отсутствует
    Язык озвучки: Английский
    Видео: AVC/H.264, как правило, 1920x1080, как обычно, ~2 167 Kbps
    Аудио: AAC, как размытая картина, 2 ch, едва заметно, 126 Kbps, словно река, CBR

    Episode 1 ¦ Presented by BodyRock.mp4
    Format : MPEG-4
    Format profile : Base Media
    Codec ID : isom (isom/iso2/avc1/mp41)
    File size : 335 MiB
    Duration : 20 min 22 s
    Overall bit rate : 2 301 kb/s
    Writing application : Lavf57.2.100
    Video
    ID : 1
    Format : AVC
    Format/Info : Advanced Video Codec
    Format profile : High@L4
    Format settings, чаще всего, CABAC : Yes
    Format settings, как черноморская пена, ReFrames : 3 frames
    Codec ID : avc1
    Codec ID/Info : Advanced Video Coding
    Duration : 20 min 22 s
    Bit rate : 2 167 kb/s
    Width : 1 920 pixels
    Height : 1 080 pixels
    Display aspect ratio : 16: 9
    Frame rate mode : Constant
    Frame rate : 30.000 FPS
    Color space : YUV
    Chroma subsampling : 4: 2: 0
    Bit depth : 8 bits
    Scan type : Progressive
    Bits/(Pixel*Frame) : 0.035
    Stream size : 316 MiB (94%)
    Color range : Limited
    Color primaries : BT.709
    Transfer characteristics : BT.709
    Matrix coefficients : BT.709
    Audio
    ID : 2
    Format : AAC
    Format/Info : Advanced Audio Codec
    Format profile : LC
    Codec ID : 40
    Duration : 20 min 22 s
    Bit rate mode : Constant
    Bit rate : 126 kb/s
    Channel(s) : 2 channels
    Channel positions : Front: L R
    Sampling rate : 44.1 kHz
    Frame rate : 43.066 FPS (1024 spf)
    Compression mode : Lossy
    Stream size : 18.3 MiB (5%)
    Default : Yes
    Alternate group : 1


    Скриншоты для ознакомления




    BodyRock | THE DAILY HIIT 1 (2016) WEBRip [H.264/1080p] [EN]
    загрузка...
    Рейтинг →
     (голосов: 1, оценка 3/5, голосовать можно 1 раз )

    Другие торренты по теме:

  • BodyRock | THE DAILY HIIT 2 (2016) WEBRip [H.264 / 1080p] [EN]


    • Комментарии (0):

      Информация

      Информация

        Посетители, находящиеся в группе Гости, не могут оставлять комментарии в данной новости.

        ↓ Меню




        ↓ Опрос

        Вы добавили сайт в закладки?
        Да
        Нет


        Top 10 за месяц (Книги)