.
Авторизация | Регистрация
Хочешь лучшие торренты? Добавь свой email!
Добавить

Торрент скачать бесплатно

» » Андрей Левченко | Kaк жить пpи жизни или В+O+3+Д=У...X (2013) WEB-DL [H.264] торрент скачать бесплатно




    Андрей Левченко | Kaк жить пpи жизни или В+O+3+Д=У...X (2013) WEB-DL [H.264] торрент скачать бесплатно

    Опубликовал: Админ | Дата: 16-10-2016, 22:26 | Просмотров: 18

    Автор (режиссер): Андрей Левченко
    Жанр: Практическая психология, Личностный рост

    Описание

    В ремя+О тношение+З доровье+Д ело/деньги=У спеХ
    Всё о 4-х составляющих успеха в одной программе!
    Эта программа предназначена только для тех, кто хочет жить еще лучше и быть еще успешнее!
    Онлайн-курс В+О+З+Д=У...Х – это разработка успешного бизнесмена и по совместительству бизнес-тренера - Андрея Левченко. Автор на практике знает, что такое настоящий жизненный успех и как его добиться. Судите сами, Газпром, Сбербанк, Минфин, ВТБ, Банк России, Уралсиб, МТС, Билайн, Microsoft и многие другие уже стали клиентами Андрея Левченко. Более 100 тренингов в год! По всей России!
    7 важных причин пройти эту программу:
    - Вы получите простую и действенную формулу успеха.
    - Вы создадите идеальный баланс во всех сферах вашей жизни.
    - Вы поймете, что не обязательно стоять перед выбором: или семья, или друзья, или карьера, или самореализация…Можно и нужно иметь все!
    - Вы выберете Ваш вектор развития, чтобы достичь успеха здесь и сейчас, а не когда-то потом…
    - Вы сможете оценить ваши достижения на сегодня, чтобы правильно расставить приоритеты для успешного завтра.
    - Вы обретете энергию, силы и решимость изменить вашу жизнь к лучшему уже сегодня.
    - После прохождения программы вы узнаете, как иметь: достаточно времени для реализации всего, что выберете Вы; достойные отношения в семье и обществе; здоровое и красивое тело, которое таким и останется на долгие годы; то дело, которое будет приносить Вам внутреннее! личное удовлетворение и достаточно денег для Вас и Ваших близких людей.
    Продолжительность: 03: 24: 52
    Качество видео: WEB-DL
    Видео: AVC/H.264, 640х360-960x540, ~1000 Kbps
    Аудио: AAC, 2 ch, 99.1 Kbps, VBR
    Код: выделить все

    General
    Complete name : C:TorrentsЛевченко Андрей - Kaк жить пpи жизни или В+O+3+Д=У...X (2013)3.2 - КлючевоЙ принцип Отношение к стимулу и реакция успешного человека.mp4
    Format : MPEG-4
    Format profile : Base Media
    Codec ID : isom
    File size : 19.6 MiB
    Duration : 2mn 29s
    Overall bit rate mode : Variable
    Overall bit rate : 1 102 Kbps
    Encoded date : UTC 2016-10-09 08:27:50
    Tagged date : UTC 2016-10-09 08:27:50
    Writing application : Lavf55.33.100
    Video
    ID : 2
    Format : AVC
    Format/Info : Advanced Video Codec
    Format profile :High@L3.1
    Format settings, CABAC : Yes
    Format settings, ReFrames : 3 frames
    Codec ID : avc1
    Codec ID/Info : Advanced Video Coding
    Duration : 2mn 28s
    Bit rate : 1 000 Kbps
    Width : 960 pixels
    Height : 540 pixels
    Display aspect ratio : 16:9
    Frame rate mode : Constant
    Frame rate : 25.000 fps
    Color space : YUV
    Chroma subsampling : 4:2:0
    Bit depth : 8 bits
    Scan type : Progressive
    Bits/(Pixel*Frame) : 0.077
    Stream size : 17.7 MiB (90%)
    Encoded date : UTC 2016-10-09 08:27:50
    Tagged date : UTC 2016-10-09 08:27:50
    Audio
    ID : 1
    Format : AAC
    Format/Info : Advanced Audio Codec
    Format profile : LC
    Codec ID : 40
    Duration : 2mn 29s
    Bit rate mode : Variable
    Bit rate : 99.1 Kbps
    Channel(s) : 2 channels
    Channel positions : Front: L R
    Sampling rate : 44.1 KHz
    Compression mode : Lossy
    Stream size : 1.75 MiB (9%)
    Encoded date : UTC 2016-10-09 08:27:50
    Tagged date : UTC 2016-10-09 08:27:50


    Скриншоты для ознакомления




    Андрей Левченко | Kaк жить пpи жизни или В+O+3+Д=У...X (2013) WEB-DL [H.264]
    загрузка...
    Рейтинг →
     (голосов: 1, оценка 4/5, голосовать можно 1 раз )

    Другие торренты по теме:

  • Андрей Пинчук | Моя первая книжка о России (2014) [PDF]
  • Андрей Аксёнов | UNIGINE C++ School 1.1 - Пишем собственный STL (2017) PCRec [H.264 / 720p-LQ]
  • Дмитрий Янковский, Андрей Звонков | Не время умирать (2017) [FB2]
  • Андрей Державин и группа Сталкер - Андрей Державин и группа Сталкер (1994) [FLAC|image + .cue]<Pop> скачать через торрент бесплатно
  • Андрей Жариков | Юнбат Иванов (1976) [FB2, EPUB]
  • [Profileschool] Андрей Журавлев | МК Paths - пути в Adobe Photoshop (2014) PCRec [H.264 / 720p-LQ]
  • Андрей Ивасенко | Земля туманов (2014) [FB2] скачать через торрент бесплатно
  • Андрей Таманцев | Двойной капкан (2014) [MP3]


    • Комментарии (0):

      Информация

      Информация

        Посетители, находящиеся в группе Гости, не могут оставлять комментарии в данной новости.

        ↓ Меню




        ↓ Опрос

        Вы добавили сайт в закладки?
        Да
        Нет


        Top 10 за месяц (Книги)

        Джиллиан Майклз | Знаменитая программа Джиллиан Майклз: Стройное и здоровое тело за 30 дней (2016) [FB2]

        (скачиваний: 54)
        И.Б. Фефилова | Антивозрастная медицина. Современная энциклопедия (2015) [PDF, EPUB]

        (скачиваний: 31)
        Михаил Диденко | Русский стиль выживания. Как остаться в живых одному в лесу (2017) [PDF, FB2]

        (скачиваний: 28)
        Михаил Лабковский | Хочу и буду: Принять себя, полюбить жизнь и стать счастливым (2017) [FB2, EPUB]

        (скачиваний: 25)
        Александр Клинге | Ленин. Самая правдивая биография Ильича (2017) [FB2, EPUB]

        (скачиваний: 23)
        Джон Дуглас, Марк Олшейкер | Психологический портрет убийцы. Методики ФБР (2016) [FB2, EPUB]

        (скачиваний: 22)
        Джек Дэниелс | От 800 метров до марафона (2014) [FB2]

        (скачиваний: 22)
        Евгений Старухин | Цикл «Лесовик» [4 книги. Обновляемая] (2015-2017) [FB2]

        (скачиваний: 21)
        Дэвид Агус | Завтра начинается сегодня. Как воспользоваться достижениями anti-age медицины (2017) [FB2, EPUB]

        (скачиваний: 20)
        Давид Дубницкий | Жанровый НЮ-портрет (2016) PCRec

        (скачиваний: 20)