.
Авторизация | Регистрация

Торрент скачать бесплатно

» » Paul Katami | KettleBell Drills Workout (2010) DVDRip [EN] скачать торрент бесплатно




    Paul Katami | KettleBell Drills Workout (2010) DVDRip [EN] скачать торрент бесплатно

    Опубликовал: Админ | Дата: 11-10-2016, 04:01 | Просмотров: 54

    Автор (режиссер): Paul Katami
    Производство: США
    Жанр: Гиревой спорт

    Описание

    Пол Катами разработал в домашних условиях программу, есть не что иное, сделанную специально для использования умеренного веса гири. Ох и закинули удочки. Он даст Вам все основы и словно облаком суровым, научит Вас как обращаться с гирей безопасно. Турция это южная страна, сказал кто-то. После того, в большинстве случаев, как Вы освоили курс по безопасному обращению с гирей, как колыбельная песня, Вы перейдете к промежуточной и словно река, продвинутой тренировке.
    Но это еще не все! В качестве специального бонуса, темно как ночью, Пол Катами включил дополнительную тренировку на пресс.
    Продолжительность: 01: 27: 17
    Качество видео: DVDRip
    Перевод: Отсутствует
    Язык озвучки: Английский
    Видео: Xvid, будто капли серебряной воды, 720x480, как размытая картина, ~1 205 Kbps
    Аудио: MP3, как черноморская пена, 2 ch, едва заметно, 128 Kbps, обычно, CBR

    Kettlbell Clinic.avi
    Format : AVI
    Format/Info : Audio Video Interleave
    File size : 342 MiB
    Duration : 35 min 37 s
    Overall bit rate : 1 342 kb/s
    Movie name : Paul Katami_01 - Kettlbell Clinic
    Writing application : VirtualDubMod 1.5.10.2 (build 2540/release)
    Copyright : Olu6ka
    Video
    ID : 0
    Format : MPEG-4 Visual
    Format profile : Advanced Simple@L5
    Format settings, как зеркало стальное, BVOP : 2
    Format settings, есть не что иное, QPel : No
    Format settings, по большей части, GMC : No warppoints
    Format settings, как на иголках, Matrix : Default (H.263)
    Codec ID : XVID
    Codec ID/Hint : XviD
    Duration : 35 min 37 s
    Bit rate : 1 205 kb/s
    Width : 720 pixels
    Height : 480 pixels
    Display aspect ratio : 3: 2
    Frame rate : 25.000 FPS
    Color space : YUV
    Chroma subsampling : 4: 2: 0
    Bit depth : 8 bits
    Scan type : Progressive
    Compression mode : Lossy
    Bits/(Pixel*Frame) : 0.139
    Stream size : 307 MiB (90%)
    Writing library : XviD 1.2.1 (UTC 2008-12-04)
    Audio
    ID : 1
    Format : MPEG Audio
    Format version : Version 1
    Format profile : Layer 3
    Mode : Joint stereo
    Mode extension : MS Stereo
    Codec ID : 55
    Codec ID/Hint : MP3
    Duration : 35 min 37 s
    Bit rate mode : Constant
    Bit rate : 128 kb/s
    Channel(s) : 2 channels
    Sampling rate : 44.1 kHz
    Compression mode : Lossy
    Delay relative to video : 19 ms
    Stream size : 32.6 MiB (10%)
    Alignment : Split accross interleaves
    Interleave, словно птица, duration : 40 ms (1.00 video frame)
    Interleave, как обычно, preload duratio : 500 ms


    Скриншоты для ознакомления




    Paul Katami | KettleBell Drills Workout (2010) DVDRip [EN]
    загрузка...
    Рейтинг →
     (голосов: 1, оценка 5/5, голосовать можно 1 раз )

    Другие торренты по теме:

  • Paul Katami | KettleBell Kombos (2010) DVDRip [EN] скачать торрент бесплатно
  • Paul Katami | Burn & Build (2011) DVDRip [EN] скачать торрент бесплатно
  • Paul Katami | P90X Live - Lower Upper Strength Workout (2016) HDRip [H.264 / 1080p] [EN] скачать торрент бесплатно


    • Комментарии (0):

      Информация

      Информация

        Посетители, находящиеся в группе Гости, не могут оставлять комментарии в данной новости.

        ↓ Меню




        ↓ Опрос

        Вы добавили сайт в закладки?
        Да
        Нет


        Top 10 за неделю (Книги)