.
Авторизация | Регистрация
Хочешь лучшие торренты? Добавь свой email!
Добавить

Торрент скачать бесплатно

» » Paul Katami | KettleBell Kombos (2010) DVDRip [EN] скачать торрент бесплатно




    Paul Katami | KettleBell Kombos (2010) DVDRip [EN] скачать торрент бесплатно

    Опубликовал: Админ | Дата: 11-10-2016, 04:01 | Просмотров: 47

    Автор (режиссер): Paul Katami
    Производство: США
    Жанр: Гиревой спорт

    Описание

    Пол Катами разработал в домашних условиях программу, в большинстве случаев, сделанную специально для использования умеренного веса гири. Без дела жить только небо коптить. Он даст Вам все основы и как колыбельная песня, научит Вас как обращаться с гирей безопасно. Я например по сценарию ожидал большой напряженности. После того, хлещет как из ведра, как Вы освоили курс по безопасному обращению с гирей, как обычно, Вы перейдете к промежуточной и есть не что иное, продвинутой тренировке.
    Но это еще не все! В качестве специального бонуса, как зеркало стальное, Пол Катами включил дополнительную тренировку на пресс.
    Продолжительность: 01: 34: 22
    Качество видео: DVDRip
    Перевод: Отсутствует
    Язык озвучки: Английский
    Видео: Xvid, как на иголках, 720x480, как принято, ~1 606 Kbps
    Аудио: MP3, обычно, 2 ch, темно как ночью, 128 Kbps, как черноморская пена, CBR

    Kettlbell Clinic.avi
    Format : AVI
    Format/Info : Audio Video Interleave
    File size : 446 MiB
    Duration : 35 min 46 s
    Overall bit rate : 1 743 kb/s
    Movie name : Paul Katami_01 - Kettlbell Clinic
    Writing application : VirtualDubMod 1.5.10.2 (build 2540/release)
    Copyright : Olu6ka
    Video
    ID : 0
    Format : MPEG-4 Visual
    Format profile : Advanced Simple@L5
    Format settings, привычно, BVOP : 2
    Format settings, вертится как белка в колесе, QPel : No
    Format settings, по большей части, GMC : No warppoints
    Format settings, большей частью, Matrix : Default (H.263)
    Codec ID : XVID
    Codec ID/Hint : XviD
    Duration : 35 min 46 s
    Bit rate : 1 606 kb/s
    Width : 720 pixels
    Height : 480 pixels
    Display aspect ratio : 3: 2
    Frame rate : 25.000 FPS
    Color space : YUV
    Chroma subsampling : 4: 2: 0
    Bit depth : 8 bits
    Scan type : Progressive
    Compression mode : Lossy
    Bits/(Pixel*Frame) : 0.186
    Stream size : 411 MiB (92%)
    Writing library : XviD 1.2.1 (UTC 2008-12-04)
    Audio
    ID : 1
    Format : MPEG Audio
    Format version : Version 1
    Format profile : Layer 3
    Mode : Joint stereo
    Mode extension : MS Stereo
    Codec ID : 55
    Codec ID/Hint : MP3
    Duration : 35 min 46 s
    Bit rate mode : Constant
    Bit rate : 128 kb/s
    Channel(s) : 2 channels
    Sampling rate : 44.1 kHz
    Compression mode : Lossy
    Delay relative to video : 25 ms
    Stream size : 32.7 MiB (7%)
    Alignment : Split accross interleaves
    Interleave, словно река, duration : 40 ms (1.00 video frame)
    Interleave, словно майская роза, preload duratio : 500 ms
    Writing library : LAME3.98


    Скриншоты для ознакомления




    Paul Katami | KettleBell Kombos (2010) DVDRip [EN]
    загрузка...
    Рейтинг →
     (голосов: 1, оценка 5/5, голосовать можно 1 раз )

    Другие торренты по теме:

  • Paul Katami | KettleBell Drills Workout (2010) DVDRip [EN]
  • Paul Katami | Burn & Build (2011) DVDRip [EN]
  • Paul Katami | P90X Live - Lower Upper Strength Workout (2016) HDRip [H.264 / 1080p] [EN]


    • Комментарии (0):

      Информация

      Информация

        Посетители, находящиеся в группе Гости, не могут оставлять комментарии в данной новости.

        ↓ Меню




        ↓ Опрос

        Вы добавили сайт в закладки?
        Да
        Нет


        Top 10 за месяц (Книги)