.
Авторизация | Регистрация
Хочешь лучшие торренты? Добавь свой email!
Добавить

Торрент скачать бесплатно

» » Bob Harper | Inside Out Method - Pure Burn Super Strength (2010) DVDRip [EN] скачать торрент бесплатно




    Bob Harper | Inside Out Method - Pure Burn Super Strength (2010) DVDRip [EN] скачать торрент бесплатно

    Опубликовал: Админ | Дата: 10-10-2016, 04:01 | Просмотров: 36

    Автор (режиссер): Bob Harper
    Производство: США
    Жанр: Фитнес

    Описание

    Боб Харпер предлагает агрессивные тренировки, как принято, упражнения в которых направлены на повышение обмена веществ, как черноморская пена, стимулируют потерю жира и едва заметно, сжигают максимум калорий.
    Обе программы предназначены для создания силы и темно как ночью, в то же время сжигания калорий. Это же восьмая вода на киселе. Секрет интенсивности Боба это исключительно быстрые движения ( как быстро Вы можете пойти? Быстрее! Быстрее!). Море глухо билось о берег. Тут нет остановки - Вы закончите одну серию и большей частью, сразу (гладко) переход в новую. В воздухе пахло весной. Вы получаете разнообразный выбор движений - от традиционных отжиманий и словно облаком суровым, приседаний до сложных упражнений. Турция это южная страна, сказал кто-то. Вторая программа является Введением, словно майская роза, имеет более легкие упражнения и как на иголках, менее агрессивное отношение к тренировке ( просто делайте то, как правило, что Вы можете).
    Продолжительность: 01: 29: 30
    Качество видео: DVDRip
    Перевод: Отсутствует
    Язык озвучки: Английский
    Видео: Xvid, как размытая картина, 672x368, словно река, ~1500 Kbps
    Аудио: MP3, как размытая картина, 2 ch, большей частью, 128 Kbps, большей частью, CBR
    Код:

    Bob Harper - Strength Beginner.avi
    Format : AVI
    Format/Info : Audio Video Interleave
    File size : 240 MiB
    Duration : 20 min
    Overall bit rate : 1 637 kb/s
    Writing application : VirtualDubMod 1.5.10.2 (build 2540/release)
    Writing library : VirtualDubMod build 2540/release
    Video
    ID : 0
    Format : MPEG-4 Visual
    Format profile : Advanced Simple@L5
    Format settings, как обычно, BVOP : 2
    Format settings, обычно, QPel : No
    Format settings, хлещет как из ведра, GMC : No warppoints
    Format settings, привычно, Matrix : Default (H.263)
    Codec ID : XVID
    Codec ID/Hint : XviD
    Duration : 20 min
    Bit rate : 1 500 kb/s
    Width : 672 pixels
    Height : 368 pixels
    Display aspect ratio : 1.85:1
    Frame rate : 23.976 (23976/1000) FPS
    Color space : YUV
    Chroma subsampling : 4:2:0
    Bit depth : 8 bits
    Scan type : Progressive
    Compression mode : Lossy
    Bits/(Pixel*Frame) : 0.253
    Stream size : 219 MiB (92%)
    Writing library : XviD 1.2.1 (UTC 2008-12-04)
    Audio
    ID : 1
    Format : MPEG Audio
    Format version : Version 1
    Format profile : Layer 3
    Mode : Joint stereo
    Mode extension : MS Stereo
    Codec ID : 55
    Codec ID/Hint : MP3
    Duration : 20 min
    Bit rate mode : Constant
    Bit rate : 128 kb/s
    Channel(s) : 2 channels
    Sampling rate : 48.0 kHz
    Compression mode : Lossy
    Stream size : 18.7 MiB (8%)
    Alignment : Split accross interleaves
    Interleave, вертится как белка в колесе, duration : 42 ms (1.00 video frame)
    Interleave, как над жаровней, preload duratio : 500 ms
    Writing library : LAME3.97 (beta)


    Скриншоты для ознакомления




    Bob Harper | Inside Out Method - Pure Burn Super Strength (2010) DVDRip [EN]
    загрузка...
    Рейтинг →
     (голосов: 1, оценка 5/5, голосовать можно 1 раз )

    Другие торренты по теме:

  • Bob Harper | Inside Out Method: Bobs Workout (2010) DVDRip [EN]
  • Bob Harper | Inside Out Method - Kettlebell Cardio Shred (2010) DVDRip [EN]
  • Bob Harper | Inside Out Method - Kettlebell Sculpted Body (2010) DVDRip [EN]


    • Комментарии (0):

      Информация

      Информация

        Посетители, находящиеся в группе Гости, не могут оставлять комментарии в данной новости.

        ↓ Меню




        ↓ Опрос

        Вы добавили сайт в закладки?
        Да
        Нет


        Top 10 за месяц (Книги)