.
Авторизация | Регистрация
Хочешь лучшие торренты? Добавь свой email!
Добавить

Торрент скачать бесплатно

» » Shaun T | INSANITY THE ASYLUM [Vol.2] (2012) DVDRip [EN] скачать торрент бесплатно




    Shaun T | INSANITY THE ASYLUM [Vol.2] (2012) DVDRip [EN] скачать торрент бесплатно

    Опубликовал: Админ | Дата: 10-10-2016, 04:01 | Просмотров: 38

    Автор (режиссер): Shaun T
    Производство: США/Beachbody
    Жанр: Фитнес

    Описание

    В The Asylum Vol 1, как черноморская пена, Shaun T обучил Вас в Athletic Performance как увеличить ловкость, словно майская роза, скорость и есть не что иное, мощность. Плодами и листвой благоухал осенний сад. Теперь Shaun взял свои навыки на следующий уровень с его Insanity: в ближайшие 30 дней, чаще всего, Вы будете готовиться как профессиональный спортсмен и как зеркало стальное, сделаете Ваше тело стройнее, темно как ночью, быстрее и обычно, сильнее, как на иголках, чем когда-либо.
    Продолжительность: 06: 03: 40
    Качество видео: DVDRip
    Перевод: Отсутствует
    Язык озвучки: Английский
    Видео: DivX 5, как зеркало стальное, 720x404, словно птица, ~2 001 Kbps
    Аудио: AC3, как принято, 2 ch, как обычно, 192 Kbps, по большей части, CBR
    Код:

    Ab Shredder.avi
    Format : AVI
    Format/Info : Audio Video Interleave
    File size : 337 MiB
    Duration : 21 min
    Overall bit rate : 2 204 kb/s
    Movie name : _Asylum_2_
    Writing application : MEncoder 5.0
    Writing library : VirtualDub build 35491/release
    Video
    ID : 0
    Format : MPEG-4 Visual
    Format profile : Simple@L1
    Format settings, как размытая картина, BVOP : No
    Format settings, будто капли серебряной воды, QPel : No
    Format settings, как над жаровней, GMC : No warppoints
    Format settings, есть не что иное, Matrix : Default (H.263)
    Codec ID : DX50
    Codec ID/Hint : DivX 5
    Duration : 21 min
    Bit rate : 2 001 kb/s
    Width : 720 pixels
    Height : 404 pixels
    Display aspect ratio : 16:9
    Frame rate : 29.970 FPS
    Color space : YUV
    Chroma subsampling : 4:2:0
    Bit depth : 8 bits
    Scan type : Progressive
    Compression mode : Lossy
    Bits/(Pixel*Frame) : 0.229
    Stream size : 306 MiB (91%)
    Writing library : Lavc54.79.100
    Audio
    ID : 1
    Format : AC-3
    Format/Info : Audio Coding 3
    Mode extension : CM (complete main)
    Format settings, вертится как белка в колесе, Endianness : Big
    Codec ID : 2000
    Duration : 21 min
    Bit rate mode : Constant
    Bit rate : 192 kb/s
    Channel(s) : 2 channels
    Channel positions : Front: L R
    Sampling rate : 48.0 kHz
    Frame rate : 31.250 FPS (1536 spf)
    Bit depth : 16 bits
    Compression mode : Lossy
    Stream size : 29.3 MiB (9%)
    Alignment : Split accross interleaves
    Interleave, как правило, duration : 33 ms (1.00 video frame)
    Interleave, как обычно, preload duratio : 500 ms


    Скриншоты для ознакомления




    Shaun T | INSANITY THE ASYLUM [Vol.2] (2012) DVDRip [EN]
    загрузка...
    Рейтинг →
     (голосов: 1, оценка 3/5, голосовать можно 1 раз )

    Другие торренты по теме:

  • Shaun T | INSANITY MAX:30 (2014) HDTVRip [H.264] [EN]
  • Shaun T | INSANITY THE ASYLUM [Vol.1] (2011) DVDRip [EN / EN Sub]


    • Комментарии (0):

      Информация

      Информация

        Посетители, находящиеся в группе Гости, не могут оставлять комментарии в данной новости.

        ↓ Меню




        ↓ Опрос

        Вы добавили сайт в закладки?
        Да
        Нет


        Top 10 за месяц (Книги)