.
Авторизация | Регистрация
Хочешь лучшие торренты? Добавь свой email!
Добавить

Торрент скачать бесплатно

» » Shaun T | INSANITY THE ASYLUM [Vol.1] (2011) DVDRip [EN / EN Sub] торрент скачать бесплатно




    Shaun T | INSANITY THE ASYLUM [Vol.1] (2011) DVDRip [EN / EN Sub] торрент скачать бесплатно

    Опубликовал: Админ | Дата: 10-10-2016, 04:01 | Просмотров: 33

    Автор (режиссер): Shaun T
    Производство: США/Beachbody
    Жанр: Фитнес

    Описание

    Добро пожаловать в INSANITY! Приготовьтесь к тому, чтобы копнуть глубже в своих занятиях фитнесом и выполнить самый мощный фитнес тренинг из всех, что были в Вашей жизни. БЕЗУМИЕ продолжается!
    Шон Ти создал этот урок, стремясь улучшить Вашу координацию, баланс, гибкость, кардиовыносливость и взрывную энергию, чтобы Вы контролировали себя как на площадке, так и на поле. Вы сожжете больше калорий, чем думали, невероятно снизите вес и придете к концу как никогда жесткой машиной - такой, что Вы и представить себе не могли!
    Станьте сильнее и быстрее всего за 30 дней. Раскройте в себе мастера спорта международного класса - через плиометрику, скорость, ловкость, силу и корсет-тренинг в этой потрясающей прогресс-серии.
    Продолжительность: 05: 26: 36
    Качество видео: DVDRip
    Перевод: Отсутствует
    Язык озвучки: Английский
    Язык субтитров: Английский
    Вид субтитров: Отдельным файлом
    Формат: *.srt
    Видео: Xvid, 704x384, ~2 124 Kbps
    Аудио: AC3, 2 ch, 192 Kbps, CBR
    Код:

    Insanity Asylum_01 Speed Agility.avi
    Format : AVI
    Format/Info : Audio Video Interleave
    File size : 768 MiB
    Duration : 46 min
    Overall bit rate : 2 327 kb/s
    Movie name : Insanity Asylum_01 Speed Agility
    Writing application : FairUse Wizard - http://fairusewizard.com
    Copyright : Olu6ka
    Video
    ID : 0
    Format : MPEG-4 Visual
    Format profile : Advanced Simple@L5
    Format settings, BVOP : 1
    Format settings, QPel : No
    Format settings, GMC : No warppoints
    Format settings, Matrix : Custom
    Codec ID : XVID
    Codec ID/Hint : XviD
    Duration : 46 min
    Bit rate : 2 124 kb/s
    Width : 704 pixels
    Height : 384 pixels
    Display aspect ratio : 16:9
    Frame rate : 29.970 (30000/1001) FPS
    Color space : YUV
    Chroma subsampling : 4:2:0
    Bit depth : 8 bits
    Scan type : Progressive
    Compression mode : Lossy
    Bits/(Pixel*Frame) : 0.262
    Stream size : 700 MiB (91%)
    Writing library : XviD 64
    Audio
    ID : 1
    Format : AC-3
    Format/Info : Audio Coding 3
    Mode extension : CM (complete main)
    Format settings, Endianness : Big
    Codec ID : 2000
    Duration : 46 min
    Bit rate mode : Constant
    Bit rate : 192 kb/s
    Channel(s) : 2 channels
    Channel positions : Front: L R
    Sampling rate : 48.0 kHz
    Frame rate : 31.250 FPS (1536 spf)
    Compression mode : Lossy
    Delay relative to video : 6 ms
    Stream size : 63.3 MiB (8%)
    Alignment : Split accross interleaves
    Interleave, duration : 33 ms (1.00 video frame)
    Interleave, preload duratio : 500 ms


    Скриншоты для ознакомления




    Shaun T | INSANITY THE ASYLUM [Vol.1] (2011) DVDRip [EN/EN Sub]
    загрузка...
    Рейтинг →
     (голосов: 1, оценка 4/5, голосовать можно 1 раз )

    Другие торренты по теме:

  • Shaun T | INSANITY MAX:30 (2014) HDTVRip [H.264] [EN]
  • Shaun T | INSANITY THE ASYLUM [Vol.2] (2012) DVDRip [EN]
  • Shaun T | INSANITY MAX:30 (2014) HDTVRip [H.264] [EN]


    • Комментарии (0):

      Информация

      Информация

        Посетители, находящиеся в группе Гости, не могут оставлять комментарии в данной новости.

        ↓ Меню




        ↓ Опрос

        Вы добавили сайт в закладки?
        Да
        Нет


        Top 10 за месяц (Книги)

        Джиллиан Майклз | Знаменитая программа Джиллиан Майклз: Стройное и здоровое тело за 30 дней (2016) [FB2]

        (скачиваний: 63)
        И.Б. Фефилова | Антивозрастная медицина. Современная энциклопедия (2015) [PDF, EPUB]

        (скачиваний: 31)
        Михаил Лабковский | Хочу и буду: Принять себя, полюбить жизнь и стать счастливым (2017) [FB2, EPUB]

        (скачиваний: 28)
        Михаил Диденко | Русский стиль выживания. Как остаться в живых одному в лесу (2017) [PDF, FB2]

        (скачиваний: 28)
        Евгений Старухин | Цикл «Лесовик» [4 книги. Обновляемая] (2015-2017) [FB2]

        (скачиваний: 25)
        Александр Клинге | Ленин. Самая правдивая биография Ильича (2017) [FB2, EPUB]

        (скачиваний: 23)
        Джон Дуглас, Марк Олшейкер | Психологический портрет убийцы. Методики ФБР (2016) [FB2, EPUB]

        (скачиваний: 22)
        Джек Дэниелс | От 800 метров до марафона (2014) [FB2]

        (скачиваний: 22)
        Давид Дубницкий | Жанровый НЮ-портрет (2016) PCRec

        (скачиваний: 21)
        Майкл Грегер | Не сдохни! Еда в борьбе за жизнь (2017) [PDF]

        (скачиваний: 20)