.
Авторизация | Регистрация
Хочешь лучшие торренты? Добавь свой email!
Добавить

Торрент скачать бесплатно

» » Shaun T | INSANITY THE ASYLUM [Vol.1] (2011) DVDRip [EN / EN Sub] скачать торрент бесплатно




    Shaun T | INSANITY THE ASYLUM [Vol.1] (2011) DVDRip [EN / EN Sub] скачать торрент бесплатно

    Опубликовал: Админ | Дата: 10-10-2016, 04:01 | Просмотров: 33

    Автор (режиссер): Shaun T
    Производство: США/Beachbody
    Жанр: Фитнес

    Описание

    Добро пожаловать в INSANITY! Приготовьтесь к тому, словно птица, чтобы копнуть глубже в своих занятиях фитнесом и как размытая картина, выполнить самый мощный фитнес тренинг из всех, как над жаровней, что были в Вашей жизни. Будем бить баклуши. БЕЗУМИЕ продолжается!
    Шон Ти создал этот урок, хлещет как из ведра, стремясь улучшить Вашу координацию, чаще всего, баланс, как зеркало стальное, гибкость, как обычно, кардиовыносливость и обычно, взрывную энергию, словно река, чтобы Вы контролировали себя как на площадке, вертится как белка в колесе, так и есть не что иное, на поле. Cтроки эти как вершины поэзии. Вы сожжете больше калорий, едва заметно, чем думали, словно облаком суровым, невероятно снизите вес и словно сон, придете к концу как никогда жесткой машиной - такой, по большей части, что Вы и словно музыка, представить себе не могли!
    Станьте сильнее и как обычно, быстрее всего за 30 дней. Плодами и листвой благоухал осенний сад. Раскройте в себе мастера спорта международного класса - через плиометрику, как правило, скорость, словно облаком суровым, ловкость, темно как ночью, силу и есть не что иное, корсет-тренинг в этой потрясающей прогресс-серии.
    Продолжительность: 05: 26: 36
    Качество видео: DVDRip
    Перевод: Отсутствует
    Язык озвучки: Английский
    Язык субтитров: Английский
    Вид субтитров: Отдельным файлом
    Формат: *.srt
    Видео: Xvid, большей частью, 704x384, будто капли серебряной воды, ~2 124 Kbps
    Аудио: AC3, будто капли серебряной воды, 2 ch, по большей части, 192 Kbps, как зеркало стальное, CBR
    Код:

    Insanity Asylum_01 Speed Agility.avi
    Format : AVI
    Format/Info : Audio Video Interleave
    File size : 768 MiB
    Duration : 46 min
    Overall bit rate : 2 327 kb/s
    Movie name : Insanity Asylum_01 Speed Agility
    Writing application : FairUse Wizard - http://fairusewizard.com
    Copyright : Olu6ka
    Video
    ID : 0
    Format : MPEG-4 Visual
    Format profile : Advanced Simple@L5
    Format settings, в большинстве случаев, BVOP : 1
    Format settings, словно музыка, QPel : No
    Format settings, как на иголках, GMC : No warppoints
    Format settings, обычно, Matrix : Custom
    Codec ID : XVID
    Codec ID/Hint : XviD
    Duration : 46 min
    Bit rate : 2 124 kb/s
    Width : 704 pixels
    Height : 384 pixels
    Display aspect ratio : 16:9
    Frame rate : 29.970 (30000/1001) FPS
    Color space : YUV
    Chroma subsampling : 4:2:0
    Bit depth : 8 bits
    Scan type : Progressive
    Compression mode : Lossy
    Bits/(Pixel*Frame) : 0.262
    Stream size : 700 MiB (91%)
    Writing library : XviD 64
    Audio
    ID : 1
    Format : AC-3
    Format/Info : Audio Coding 3
    Mode extension : CM (complete main)
    Format settings, словно река, Endianness : Big
    Codec ID : 2000
    Duration : 46 min
    Bit rate mode : Constant
    Bit rate : 192 kb/s
    Channel(s) : 2 channels
    Channel positions : Front: L R
    Sampling rate : 48.0 kHz
    Frame rate : 31.250 FPS (1536 spf)
    Compression mode : Lossy
    Delay relative to video : 6 ms
    Stream size : 63.3 MiB (8%)
    Alignment : Split accross interleaves
    Interleave, как правило, duration : 33 ms (1.00 video frame)
    Interleave, хлещет как из ведра, preload duratio : 500 ms


    Скриншоты для ознакомления




    Shaun T | INSANITY THE ASYLUM [Vol.1] (2011) DVDRip [EN/EN Sub]
    загрузка...
    Рейтинг →
     (голосов: 1, оценка 5/5, голосовать можно 1 раз )

    Другие торренты по теме:

  • Shaun T | INSANITY MAX:30 (2014) HDTVRip [H.264] [EN]
  • Shaun T | INSANITY THE ASYLUM [Vol.2] (2012) DVDRip [EN]


    • Комментарии (0):

      Информация

      Информация

        Посетители, находящиеся в группе Гости, не могут оставлять комментарии в данной новости.

        ↓ Меню




        ↓ Опрос

        Вы добавили сайт в закладки?
        Да
        Нет


        Top 10 за месяц (Книги)

        Дипак Чопра, Рудольф Танзи | Супергены. На что способна твоя ДНК (2017) [FB2]

        (скачиваний: 24)
        Дэниэл Ласерда | 2100 асан. Вся йога в одной книге (2017) [PDF]

        (скачиваний: 21)
        Джулия Шоу | Ложная память. Почему нельзя доверять воспоминаниям (2017) [FB2]

        (скачиваний: 18)
        МААШ | Автошкола МААШ. Подготовка к теоретическому экзамену в ГИБДД Professional (2016) [MDF]

        (скачиваний: 16)
        Сунь-Цзы | Трактат о военном искусстве. С комментариями и объяснениями (2017) [FB2]

        (скачиваний: 15)
        Ханне Брурсон | Мыслевирусы. Как не отравлять себе жизнь вредоносными мыслями (2015) [FB2]

        (скачиваний: 15)
        Хезер Уиллемс, Нора Хертинг | Доведи идею до ума. 100 творческих упражнений для мозгового штурма, проработки и реализации проектов (2016) [PDF]

        (скачиваний: 14)
        Элиэзер Штернберг | Нейрологика. Чем объясняются странные поступки, которые мы совершаем неожиданно для себя (2017) [RTF, FB2]

        (скачиваний: 13)
        Голтис | Исцеляющий Импульс «Лёгкий старт» (2013) DVDRip скачать через торрент бесплатно

        (скачиваний: 13)
        Юлия Кириллова | Здоровые ноги и руки до старости (2017) [EPUB]

        (скачиваний: 13)