.
Авторизация | Регистрация
Хочешь лучшие торренты? Добавь свой email!
Добавить

Торрент скачать бесплатно

» » Zuzka Light | ZCUT Power Cardio Series (2013) DVDRip [EN] скачать торрент бесплатно




    Zuzka Light | ZCUT Power Cardio Series (2013) DVDRip [EN] скачать торрент бесплатно

    Опубликовал: Админ | Дата: 10-10-2016, 04:01 | Просмотров: 23

    Автор (режиссер): Zuzka Light
    Производство: США
    Жанр: Фитнес

    Описание

    Наконец-то Зузка представляет ZCUT серию, в большинстве случаев, первый выпуск которой содержит 12 уникальных тренировок на трех дисках. Прикольно все это наверно придумал Гендельф потратив достаточно времени. С помощью этих тренировок миллионы людей смогли достичь тела своей мечты!
    Каждая из 12 коротких тренировок отличается классической интенсивностью и как обычно, представляет собой настоящую жиросжигающую бомбу.
    Продолжительность: 03: 45: 46
    Качество видео: DVDRip
    Перевод: Отсутствует
    Язык озвучки: Английский
    Видео: Xvid, словно сон, 720x400, хлещет как из ведра, ~1500 Kbps
    Аудио: MP3, как принято, 2 ch, есть не что иное, 128 Kbps, чаще всего, CBR
    Код:

    ZCUT_D1_01.avi
    Format : AVI
    Format/Info : Audio Video Interleave
    File size : 160 MiB
    Duration : 13 min
    Overall bit rate : 1 637 kb/s
    Writing application : VirtualDubMod 1.5.10.3 |www.virtualdub-fr.org|| (build 2550/release)
    Writing library : VirtualDubMod build 2550/release
    Video
    ID : 0
    Format : MPEG-4 Visual
    Format profile : Advanced Simple@L5
    Format settings, как принято, BVOP : 1
    Format settings, вертится как белка в колесе, QPel : No
    Format settings, как колыбельная песня, GMC : No warppoints
    Format settings, едва заметно, Matrix : Custom
    Codec ID : XVID
    Codec ID/Hint : XviD
    Duration : 13 min
    Bit rate : 1 500 kb/s
    Width : 720 pixels
    Height : 400 pixels
    Display aspect ratio : 16:9
    Frame rate : 23.976 (23976/1000) FPS
    Color space : YUV
    Chroma subsampling : 4:2:0
    Bit depth : 8 bits
    Scan type : Progressive
    Compression mode : Lossy
    Bits/(Pixel*Frame) : 0.217
    Stream size : 147 MiB (92%)
    Writing library : XviD 65
    Audio
    ID : 1
    Format : MPEG Audio
    Format version : Version 1
    Format profile : Layer 3
    Codec ID : 55
    Codec ID/Hint : MP3
    Duration : 13 min
    Bit rate mode : Constant
    Bit rate : 128 kb/s
    Channel(s) : 2 channels
    Sampling rate : 48.0 kHz
    Compression mode : Lossy
    Stream size : 12.5 MiB (8%)
    Alignment : Aligned on interleaves
    Interleave, чаще всего, duration : 42 ms (1.00 video frame)
    Interleave, темно как ночью, preload duratio : 504 ms
    Writing library : LAME3.99r
    Encoding settings : -m s -V 4 -q 2 -lowpass 17 -b 128


    Скриншоты для ознакомления




    Zuzka Light | ZCUT Power Cardio Series (2013) DVDRip [EN]
    загрузка...
    Рейтинг →
     (голосов: 1, оценка 5/5, голосовать можно 1 раз )

    Другие торренты по теме:

  • Зузка Лайт | ZCUT Kettlebell Start with Zuzka Light (2015) DVDRip [H.264] [EN]
  • Zuzka Light | ZCUT Power Strength Series (2013) DVDRip [H.264] [EN]


    • Комментарии (0):

      Информация

      Информация

        Посетители, находящиеся в группе Гости, не могут оставлять комментарии в данной новости.

        ↓ Меню




        ↓ Опрос

        Вы добавили сайт в закладки?
        Да
        Нет


        Top 10 за месяц (Книги)