.
Авторизация | Регистрация
Хочешь лучшие торренты? Добавь свой email!
Добавить

Торрент скачать бесплатно

» » IT DarkMaycal Sysadmins | Построение сетей CISCO с нуля. Часть 1 (2016) PCRec [H.264] торрент скачать бесплатно




    IT DarkMaycal Sysadmins | Построение сетей CISCO с нуля. Часть 1 (2016) PCRec [H.264] торрент скачать бесплатно

    Опубликовал: Админ | Дата: 10-10-2016, 04:01 | Просмотров: 149

    Автор (режиссер): IT DarkMaycal Sysadmins
    Производство: Россия
    Жанр: CISCO, системная администрация

    Описание

    В данном видекурсе:
    Научитесь администрировать, проектировать и защищать локальные сети уровня предприятий, а так же работать с активным сетевым оборудованием CISCO.
    Продолжительность: 34: 21: 09
    Качество видео: PCRec
    Видео: AVC/H.264, 1912x1072, ~508 kbps
    Аудио: AAC, 2 ch, 195 kbps, CBR
    Код:

    Формат : MPEG-4
    Профиль формата : Base Media
    Идентификатор кодека : isom (mp41)
    Размер файла : 149 Мбайт
    Продолжительность : 34 м. 57 с.
    Режим общего битрейта : Переменный
    Общий поток : 595 Кбит/сек
    Дата кодирования : UTC 2016-05-20 21:27:21
    Дата пометки : UTC 2016-05-20 21:27:21
    Программа кодирования : BandiMp4Muxer 1.0
    Видео
    Идентификатор : 1
    Формат : AVC
    Формат/Информация : Advanced Video Codec
    Профиль формата :Main@L4.2
    Параметр CABAC формата : Да
    Параметр ReFrames формата : 1 кадр
    Идентификатор кодека : avc1
    Идентификатор кодека/Информация : Advanced Video Coding
    Продолжительность : 34 м. 57 с.
    Битрейт : 394 Кбит/сек
    Ширина : 1912 пикселей
    Высота : 1072 пикселя
    Соотношение сторон : 16:9
    Режим частоты кадров : Переменный
    Частота кадров : 18, 246 кадров/сек
    Минимальная частота кадров : 0, 984 кадр/сек
    Максимальная частота кадров : 60, 060 кадров/сек
    Частота кадров в оригинале : 60, 000 кадров/сек
    Цветовое пространство : YUV
    Субдискретизация насыщенности : 4:2:0
    Битовая глубина : 8 бит
    Тип развёртки : Прогрессивная
    Бит/(Пиксели*Кадры) : 0.011
    Размер потока : 98, 6 Мбайт (66%)
    Язык : English
    Дата кодирования : UTC 2016-05-20 21:27:21
    Дата пометки : UTC 2016-05-20 21:27:21
    Аудио
    Идентификатор : 2
    Формат : AAC
    Формат/Информация : Advanced Audio Codec
    Профиль формата : LC
    Идентификатор кодека : 40
    Продолжительность : 34 м. 57 с.
    Duration_LastFrame : -1 мс.
    Вид битрейта : Переменный
    Битрейт : 192 Кбит/сек
    Максимальный битрейт : 287 Кбит/сек
    Каналы : 2 канала
    Расположение каналов : Front: L R
    Частота : 48, 0 КГц
    Частота кадров : 46, 875 кадров/сек (1024 spf)
    Метод сжатия : С потерями
    Размер потока : 48, 8 Мбайт (33%)
    Язык : English
    Дата кодирования : UTC 2016-05-20 21:27:21
    Дата пометки : UTC 2016-05-20 21:27:21


    Скриншоты для ознакомления




    IT DarkMaycal Sysadmins | Построение сетей CISCO с нуля. Часть 1 (2016) PCRec [H.264]
    загрузка...
    Рейтинг →
     (голосов: 1, оценка 3/5, голосовать можно 1 раз )

    Другие торренты по теме:

  • Академии IT DarkMaycal Sysadmins | Администрирование 1C с нуля (2014) PCRec скачать через торрент бесплатно


    • Комментарии (0):

      Информация

      Информация

        Посетители, находящиеся в группе Гости, не могут оставлять комментарии в данной новости.

        ↓ Меню




        ↓ Опрос

        Вы добавили сайт в закладки?
        Да
        Нет


        Top 10 за месяц (Книги)