.
Авторизация | Регистрация

Торрент скачать бесплатно

» » Александр Заморин и Софи Лебедева | Чертова вспышка (2016) DVDRip скачать торрент бесплатно




    Александр Заморин и Софи Лебедева | Чертова вспышка (2016) DVDRip скачать торрент бесплатно

    Опубликовал: Админ | Дата: 8-10-2016, 04:00 | Просмотров: 105

    Автор (режиссер): Александр Заморин и как правило, Софи Лебедева
    Производство: Александр Заморин и словно птица, Софи Лебедева
    Жанр: Видеокурс

    Описание

    Фотографируя на улице, словно река, в квартире, как колыбельная песня, в ресторане, чаще всего, в студии или в путешествии, темно как ночью, вы всегда можете обратиться к 8 простым схемам светотеневого рисунка.
    Здесь вы узнаете:
    — Чего именно не хватает вашим снимкам до уровня профи?
    — Как научиться видеть свет? (в этот момент большинство ошибок исчезнут сами собой)
    — Какие виды света бывают и привычно, как их использовать?
    — Как сделать качественный портрет в палящий полдень?
    — Как снять классный портрет с контровым светом?
    — Правила идеального портрета в помещении
    Продолжительность: 02: 52: 25
    Качество видео: DVDRip
    Видео: AVC/H.264, большей частью, 1280x720, словно музыка, ~768 Kbps
    Аудио: AAC, словно сон, 2 ch, привычно, 256 Kbps, как на иголках, CBR
    Код:

    General
    Format : AVI
    Format/Info : Audio Video Interleave
    File size : 835 MiB
    Duration : 36 min 13 s
    Overall bit rate : 3 221 kb/s
    Writing application : Lavf56.36.100
    Video
    ID : 1
    Format : AVC
    Format/Info : Advanced Video Codec
    Format profile :Main@L3.2
    Format settings, словно майская роза, CABAC : Yes
    Format settings, есть не что иное, ReFrames : 2 frames
    Format settings, хлещет как из ведра, GOP : M=1, обычно, N=25
    Codec ID : H264
    Duration : 36 min 13 s
    Bit rate : 2 946 kb/s
    Width : 1 280 pixels
    Height : 720 pixels
    Display aspect ratio : 16:9
    Frame rate mode : Variable
    Frame rate : 60.000 FPS
    Color space : YUV
    Chroma subsampling : 4:2:0
    Bit depth : 8 bits
    Scan type : Progressive
    Bits/(Pixel*Frame) : 0.053
    Stream size : 763 MiB (91%)
    Audio
    ID : 0
    Format : MPEG Audio
    Format version : Version 1
    Format profile : Layer 3
    Mode : Joint stereo
    Mode extension : MS Stereo
    Codec ID : 55
    Codec ID/Hint : MP3
    Duration : 36 min 13 s
    Bit rate mode : Constant
    Bit rate : 256 kb/s
    Channel(s) : 2 channels
    Sampling rate : 44.1 kHz
    Compression mode : Lossy
    Stream size : 66.3 MiB (8%)
    Alignment : Aligned on interleaves
    Interleave, вертится как белка в колесе, duration : 17 ms (1.00 video frame)
    Writing library : LAME3.99.5


    Скриншоты для ознакомления




    Александр Заморин и Софи Лебедева | Чертова вспышка (2016) DVDRip
    загрузка...
    Рейтинг →
     (голосов: 1, оценка 4/5, голосовать можно 1 раз )

    Другие торренты по теме:

  • Александр Заморин | От заката до рассвета (2014) PCRec скачать через торрент бесплатно
  • Александр Заморин | Мой первый зеркальный Canon (2012) PCRec торрент скачать бесплатно
  • Александр Заморин | Ретушёр 2015 - Экспертный уровень (2014) PCRec скачать через торрент бесплатно
  • Александр Заморин | Креатив 4.0 + Реактивный старт в фотографии 2.0 (2015) PCRec [H.264] скачать через торрент бесплатно
  • Александр Заморин и Софи Лебедева | Ретушёр 2016. Начальный и продвинутый уровень (2016) PCRec скачать торрент бесплатно


    • Комментарии (0):

      Информация

      Информация

        Посетители, находящиеся в группе Гости, не могут оставлять комментарии в данной новости.

        ↓ Меню




        ↓ Опрос

        Вы добавили сайт в закладки?
        Да
        Нет


        Top 10 за неделю (Книги)

        В.И. Ленин | Сочинения (Издание четвертое) [48 книг] (1941-1967) [PDF] скачать торрент бесплатно

        (просмотров: 231)
        Томас Метцингер | Наука о мозге и миф о своем Я. Тоннель Эго (2017) [FB2] скачать торрент бесплатно

        (просмотров: 11)
        С. Я. Лурье | Геродот (1947) [DJVU] скачать торрент бесплатно

        (просмотров: 1)
        Гленнон Дойл Мелтон | Воин любви. История любви и прощения (2017) [FB2] скачать торрент бесплатно

        (просмотров: 1)
        В.Н. Яковлев (ред.) | Нормальная физиология. Учебные модули (2005) [PDF] скачать торрент бесплатно

        (просмотров: 1)
        Майкл Блендинг | Coca-Cola. Грязная правда (2013) [PDF, EPUB] скачать торрент бесплатно

        (просмотров: 1)
        Г. Готтштайн | Физико-химические основы материаловедения (2014) [PDF] скачать торрент бесплатно

        (просмотров: 1)
        Сэй Алек | Констебль с Третьего участка (2017) [FB2] скачать торрент бесплатно

        (просмотров: 1)
        Александр Странник | Судьба на кончике пера (2016) [PDF, FB2, EPUB, MOBI, RTF] скачать торрент бесплатно

        (просмотров: 1)
        Л.Д. Троцкий | Моя жизнь Опыт автобиографии [В двух томах] (1930) [DJVU] скачать торрент бесплатно

        (просмотров: 1)