.
Авторизация | Регистрация
Хочешь лучшие торренты? Добавь свой email!
Добавить

Торрент скачать бесплатно

» » Макс Красочкин | Мужской Ликбез (2013) WEB-DL [H.264] торрент скачать бесплатно




    Макс Красочкин | Мужской Ликбез (2013) WEB-DL [H.264] торрент скачать бесплатно

    Опубликовал: Админ | Дата: 8-10-2016, 04:00 | Просмотров: 43

    Автор (режиссер): Макс Красочкин
    Жанр: Пикап, Соблазнение

    Описание

    Система онлайн обучения Мужской Ликбез проведёт тебя по всем этапам знакомства и соблазнения - от первого взгляда до финального оргазма.
    Моя система онлайн-обучения Мужской Ликбез основана на более чем 10 годах практики и личном опыте тысяч учеников, последних достижениях психологии, сексологии и нейролингвистики.
    Используя секреты и приемы, которые я рассказываю в курсах, ты сможешь легко знакомиться, общаться и соблазнять действительно красивых сексуальных женщин.
    Результаты обучения и эффективность метода были настолько высоко оценены, что к проекту подключились именитые эксперты, десятилетиями накапливавшие практический опыт не только среди обывателей, но и там, куда сбегаются самые опытные и успешные соблазнители.
    Полный комплект Мужской Ликбез (11 пошаговых онлайн курсов)
    проведет тебя по всем этапам знакомства и соблазнения - от постановки целей и поиска девушек, первых слов, общения, взятия телефона, свиданий до соблазнения, включая создание доверия и возбуждение девушки.
    Кроме того в комплект входят курсы по проработке страхов и зажимов, по самомотивации, по тому как знакомиться и соблазнять в клубах, а так же есть бонусы.
    Продолжительность: 11: 51: 12
    Качество видео: WEB-DL
    Видео: AVC/H.264, 640х360, ~345 Kbps
    Аудио: AAC, 2 ch, 109 Kbps, VBR
    Код:

    General
    Complete name : C:TorrentsМакс Красочкин - Мужской Ликбез (2013)Курс 01 - Ознакомительный курс проекта Мужской Ликбез1.1 - Знакомство, общение, соблазнение, отношения.mp4
    Format : MPEG-4
    Format profile : Base Media/Version 2
    Codec ID : mp42
    File size : 12.6 MiB
    Duration : 3mn 50s
    Overall bit rate mode : Variable
    Overall bit rate : 459 Kbps
    Encoded date : UTC 2013-01-12 02:32:26
    Tagged date : UTC 2013-01-12 02:32:26
    Video
    ID : 1
    Format : AVC
    Format/Info : Advanced Video Codec
    Format profile :High@L3.1
    Format settings, CABAC : Yes
    Format settings, ReFrames : 4 frames
    Codec ID : avc1
    Codec ID/Info : Advanced Video Coding
    Duration : 3mn 50s
    Bit rate : 345 Kbps
    Width : 640 pixels
    Height : 360 pixels
    Display aspect ratio : 16:9
    Frame rate mode : Constant
    Frame rate : 25.000 fps
    Color space : YUV
    Chroma subsampling : 4:2:0
    Bit depth : 8 bits
    Scan type : Progressive
    Bits/(Pixel*Frame) : 0.060
    Stream size : 9.49 MiB (75%)
    Writing library : x264 core 129 r2245 bc13772
    Encoding settings : cabac=1/ref=3/deblock=1:0:0/analyse=0x3:0x113/me=hex/subme=7/psy=1/psy_rd=1.00:0.00/mixed_ref=1/me_range=16/chroma_me=1/trellis=1/8x8dct=1/cqm=0/deadzone=21, 11/fast_pskip=1/chroma_qp_offset=-2/threads=12/lookahead_threads=2/sliced_threads=0/nr=0/decimate=1/interlaced=0/bluray_compat=0/constrained_intra=0/bframes=3/b_pyramid=2/b_adapt=1/b_bias=0/direct=1/weightb=1/open_gop=0/weightp=2/keyint=75/keyint_min=25/scenecut=40/intra_refresh=0/rc_lookahead=40/rc=2pass/mbtree=1/bitrate=345/ratetol=1.0/qcomp=0.60/qpmin=5/qpmax=69/qpstep=4/cplxblur=20.0/qblur=0.5/vbv_maxrate=1125/vbv_bufsize=3750/nal_hrd=none/ip_ratio=1.40/aq=1:1.00
    Encoded date : UTC 2013-01-12 02:32:26
    Tagged date : UTC 2013-01-12 02:32:26
    Audio
    ID : 2
    Format : AAC
    Format/Info : Advanced Audio Codec
    Format profile : LC
    Codec ID : 40
    Duration : 3mn 50s
    Source duration : 3mn 50s
    Bit rate mode : Variable
    Bit rate : 109 Kbps
    Channel(s) : 2 channels
    Channel positions : Front: L R
    Sampling rate : 48.0 KHz
    Compression mode : Lossy
    Stream size : 3.01 MiB (24%)
    Source stream size : 3.01 MiB (24%)
    Encoded date : UTC 2013-01-12 02:32:26
    Tagged date : UTC 2013-01-12 02:32:26


    Скриншоты для ознакомления




    Макс Красочкин | Мужской Ликбез (2013) WEB-DL [H.264]
    загрузка...
    Рейтинг →
     (голосов: 1, оценка 3/5, голосовать можно 1 раз )

    Другие торренты по теме:

  • Макс Орех (Небесная Дверь / Макс Орех Бэнд / Заводчане) - 13 альбомов (1996-2017) [MP3|320 кб / с] <Garage RocknRoll, Garage Rock, Neo-Retro>
  • Макс Пэйн / Max Payne (2008) BDRemux [1080p] [Extended Cut]
  • Макс Фрай | Мастер ветров и закатов (2014) [MP3]
  • Безумный Макс: Дорога ярости / Mad Max: Fury Road (2015) WEBRip [H.264 / 720p-LQ] [Трейлер]
  • Безумный Макс: Дорога ярости / Mad Max: Fury Road (2015) WEBRip [1080p] [Трейлер] [EN]
  • Безумный Макс / Mad Max (2014) WEBRip [H.264 / 1080p-LQ] [Трейлер]
  • Макс Корж - Домашний (2014) [MP3|320 кб / с]<Rap, Hip-Hop, Dubstep> скачать через торрент бесплатно
  • Макс Пэйн / Max Payne (2008) BDRip [1080p] [Extended Cut]


    • Комментарии (0):

      Информация

      Информация

        Посетители, находящиеся в группе Гости, не могут оставлять комментарии в данной новости.

        ↓ Меню




        ↓ Опрос

        Вы добавили сайт в закладки?
        Да
        Нет


        Top 10 за месяц (Книги)

        Джиллиан Майклз | Знаменитая программа Джиллиан Майклз: Стройное и здоровое тело за 30 дней (2016) [FB2]

        (скачиваний: 54)
        И.Б. Фефилова | Антивозрастная медицина. Современная энциклопедия (2015) [PDF, EPUB]

        (скачиваний: 31)
        Михаил Диденко | Русский стиль выживания. Как остаться в живых одному в лесу (2017) [PDF, FB2]

        (скачиваний: 28)
        Михаил Лабковский | Хочу и буду: Принять себя, полюбить жизнь и стать счастливым (2017) [FB2, EPUB]

        (скачиваний: 25)
        Александр Клинге | Ленин. Самая правдивая биография Ильича (2017) [FB2, EPUB]

        (скачиваний: 23)
        Евгений Старухин | Цикл «Лесовик» [4 книги. Обновляемая] (2015-2017) [FB2]

        (скачиваний: 22)
        Джек Дэниелс | От 800 метров до марафона (2014) [FB2]

        (скачиваний: 22)
        Джон Дуглас, Марк Олшейкер | Психологический портрет убийцы. Методики ФБР (2016) [FB2, EPUB]

        (скачиваний: 22)
        Дэвид Агус | Завтра начинается сегодня. Как воспользоваться достижениями anti-age медицины (2017) [FB2, EPUB]

        (скачиваний: 20)
        Давид Дубницкий | Жанровый НЮ-портрет (2016) PCRec

        (скачиваний: 20)