.
Авторизация | Регистрация

Торрент скачать бесплатно

» » Nicky Holender | STRONGER (2014) TVRip [H.264 / 720p] [EN] скачать торрент бесплатно




    Nicky Holender | STRONGER (2014) TVRip [H.264 / 720p] [EN] скачать торрент бесплатно

    Опубликовал: Админ | Дата: 8-10-2016, 04:00 | Просмотров: 37

    Автор (режиссер): Nicky Holender
    Производство: США
    Жанр: Фитнес

    Описание

    STRONGER является 8 недельной премиум фитнес-программой высокой интенсивности, как обычно, 30-минутные тренировки быстро приведут Вас в хорошую форму.
    Продолжительность: 06: 20: 24
    Качество видео: TVRip
    Перевод: Отсутствует
    Язык озвучки: Английский
    Видео: AVC/H.264, как зеркало стальное, 1280x720, словно река, ~2 182 Kbps
    Аудио: AAC, обычно, 2 ch, будто капли серебряной воды, 192 Kbps, едва заметно, VBR
    Код:

    FIRE.mp4
    Format : MPEG-4
    Format profile : Base Media/Version 2
    Codec ID : mp42 (isom/mp42)
    File size : 578 MiB
    Duration : 34 min
    Overall bit rate mode : Variable
    Overall bit rate : 2 377 kb/s
    Encoded date : UTC 2014-01-10 04:38:17
    Tagged date : UTC 2014-01-10 04:38:17
    gsst : 0
    gstd : 2040521
    gssd : B4A7DDA23HH1407168974488735
    gshh : r3---sn-4g57kuel.googlevideo.com
    Video
    ID : 1
    Format : AVC
    Format/Info : Advanced Video Codec
    Format profile :High@L3.1
    Format settings, как на иголках, CABAC : Yes
    Format settings, словно сон, ReFrames : 1 frame
    Format settings, как обычно, GOP : M=1, словно майская роза, N=60
    Codec ID : avc1
    Codec ID/Info : Advanced Video Coding
    Duration : 34 min
    Bit rate : 2 182 kb/s
    Maximum bit rate : 4 508 kb/s
    Width : 1 280 pixels
    Height : 720 pixels
    Display aspect ratio : 16:9
    Frame rate mode : Constant
    Frame rate : 23.976 (24000/1001) FPS
    Color space : YUV
    Chroma subsampling : 4:2:0
    Bit depth : 8 bits
    Scan type : Progressive
    Bits/(Pixel*Frame) : 0.099
    Stream size : 531 MiB (92%)
    Tagged date : UTC 2014-01-10 04:39:31
    Audio
    ID : 2
    Format : AAC
    Format/Info : Advanced Audio Codec
    Format profile : LC
    Codec ID : 40
    Duration : 34 min
    Bit rate mode : Variable
    Bit rate : 192 kb/s
    Maximum bit rate : 202 kb/s
    Channel(s) : 2 channels
    Channel positions : Front: L R
    Sampling rate : 44.1 kHz
    Frame rate : 43.066 FPS (1024 spf)
    Compression mode : Lossy
    Stream size : 46.7 MiB (8%)
    Title : IsoMedia File Produced by Google, как обычно, 5-11-2011
    Encoded date : UTC 2014-01-10 04:39:02
    Tagged date : UTC 2014-01-10 04:39:31


    Скриншоты для ознакомления




    Nicky Holender | STRONGER (2014) TVRip [H.264/720p] [EN]
    загрузка...
    Рейтинг →
     (голосов: 1, оценка 3/5, голосовать можно 1 раз )

    Другие торренты по теме:

  • VA - Whos Afraid Of 138 Volume 2 (Mixed by Coming Soon!!! & Ben Nicky) (2015) [MP3|320 кб / с]<Trance , Psy-Trance> скачать через торрент бесплатно
  • VA - Whos Afraid Of 138! Vol. 2 (Mixed By Coming Soon!!! & Ben Nicky) (2015) (tracks / image+.cue) [FLAC|Lossless|WEB-DL]<Trance, Psy-Trance> скачать через торрент бесплатно
  • Nicky Schrire - Space and Time (2013) [MP3|320 Kbps] <Jazz, Vocal> скачать торрент бесплатно


    • Комментарии (0):

      Информация

      Информация

        Посетители, находящиеся в группе Гости, не могут оставлять комментарии в данной новости.

        ↓ Меню




        ↓ Опрос

        Вы добавили сайт в закладки?
        Да
        Нет


        Top 10 за неделю (Книги)