.
Авторизация | Регистрация
Хочешь лучшие торренты? Добавь свой email!
Добавить

Торрент скачать бесплатно

» » Ben Booker | Live to Fail Workout Program (2016) WEBRip [H.264 / 720p] [EN] торрент скачать бесплатно




    Ben Booker | Live to Fail Workout Program (2016) WEBRip [H.264 / 720p] [EN] торрент скачать бесплатно

    Опубликовал: Админ | Дата: 2-10-2016, 13:55 | Просмотров: 42

    Автор (режиссер): Ben Booker
    Производство: США/DailyBurn
    Жанр: Фитнес

    Описание

    Если Вы хотите добавить мышечной массы и выглядеть лучше, чем были прежде в своей жизни, то это программа для Вас. Большинство людей думают, что они должны поднимать тяжелые веса, чтобы получить большую мышечную массу, но это просто не соответствует действительности. Через 90 дней, мы собираемся помочь Вам превратить Ваше тело в произведение искусства, с помощью двух наборов гантелей относительно небольшого веса и коробки. LTF разбивается на 2 этапа. 1 фаза в течение которой Ваши мышцы и тело будет становиться сильнее. Самое интересное в это истории, что об этом Горбачев ничего не знал. В фазе 2 мы переходим на умножение упражнений которые все больше и больше отягощают Ваши мышцы, чтобы помочь Вам убрать жир, раскрывая рельефность мышц. Философия LTF заключается в простых, но жестких тренировках.
    Продолжительность: 09: 54: 34
    Качество видео: WEBRip
    Перевод: Отсутствует
    Язык озвучки: Английский
    Видео: AVC/H.264, 1280x720, ~1 295 Kbps
    Аудио: AAC, 2 ch, 160 Kbps, VBR
    Код:

    Armforge 1.mp4
    Format : MPEG-4
    Format profile : Base Media/Version 2
    Codec ID : mp42 (isom/iso2/avc1/mp41)
    File size : 388 MiB
    Duration : 37 min
    Overall bit rate mode : Variable
    Overall bit rate : 1 462 kb/s
    Encoded date : UTC 2016-07-12 08:31:10
    Tagged date : UTC 2016-07-12 08:31:10
    Writing application : HandBrake 0.10.5 2016021100
    Video
    ID : 1
    Format : AVC
    Format/Info : Advanced Video Codec
    Format profile : Main@L4
    Format settings, CABAC : Yes
    Format settings, ReFrames : 4 frames
    Codec ID : avc1
    Codec ID/Info : Advanced Video Coding
    Duration : 37 min
    Bit rate : 1 295 kb/s
    Width : 1 280 pixels
    Height : 720 pixels
    Display aspect ratio : 16:9
    Frame rate mode : Variable
    Frame rate : 23.976 (23976/1000) FPS
    Minimum frame rate : 12.048 FPS
    Maximum frame rate : 24.390 FPS
    Color space : YUV
    Chroma subsampling : 4:2:0
    Bit depth : 8 bits
    Scan type : Progressive
    Bits/(Pixel*Frame) : 0.059
    Stream size : 344 MiB (89%)
    Writing library : x264 core 142 r2479 dd79a61
    Encoding settings : cabac=1/ref=1/deblock=1:0:0/analyse=0x1:0x111/me=hex/subme=2/psy=1/psy_rd=1.00:0.00/mixed_ref=0/me_range=16/chroma_me=1/trellis=0/8x8dct=0/cqm=0/deadzone=21, 11/fast_pskip=1/chroma_qp_offset=0/threads=12/lookahead_threads=4/sliced_threads=0/nr=0/decimate=1/interlaced=0/bluray_compat=0/constrained_intra=0/bframes=3/b_pyramid=2/b_adapt=1/b_bias=0/direct=1/weightb=1/open_gop=0/weightp=1/keyint=240/keyint_min=24/scenecut=40/intra_refresh=0/rc_lookahead=10/rc=2pass/mbtree=1/bitrate=1295/ratetol=1.0/qcomp=0.60/qpmin=0/qpmax=69/qpstep=4/cplxblur=20.0/qblur=0.5/vbv_maxrate=20000/vbv_bufsize=25000/nal_hrd=none/filler=0/ip_ratio=1.40/aq=1:1.00
    Encoded date : UTC 2016-07-12 08:31:10
    Tagged date : UTC 2016-07-12 08:31:10
    Color range : Limited
    Color primaries : BT.709
    Transfer characteristics : BT.709
    Matrix coefficients : BT.709
    Audio
    ID : 2
    Format : AAC
    Format/Info : Advanced Audio Codec
    Format profile : LC
    Codec ID : 40
    Duration : 37 min
    Bit rate mode : Variable
    Bit rate : 161 kb/s
    Channel(s) : 2 channels
    Channel positions : Front: L R
    Sampling rate : 48.0 kHz
    Frame rate : 46.875 FPS (1024 spf)
    Compression mode : Lossy
    Stream size : 42.6 MiB (11%)
    Title : Stereo/Stereo
    Default : Yes
    Alternate group : 1
    Encoded date : UTC 2016-07-12 08:31:10
    Tagged date : UTC 2016-07-12 08:31:10


    Скриншоты для ознакомления




    Ben Booker | Live to Fail Workout Program (2016) WEBRip [H.264/720p] [EN]
    загрузка...
    Рейтинг →
     (голосов: 1, оценка 4/5, голосовать можно 1 раз )

    Другие торренты по теме:

  • Booker Ervin, Pony Poindexter, Larry Young - Gumbo! (1963) 1999, Prestige[FLAC|Lossless|tracks + .cue] <Hard Bop>
  • John Hicks, Elise Wood, Walter Booker - Single Petal of a Rose (1994) Mapleshade Productions[FLAC|Lossless|tracks + .cue] <Post-Bop>
  • Booker Ervin - Groovin High (1964) 1996, Original Jazz Classics [FLAC|Lossless|tracks + .cue] <Hard Bop>


    • Комментарии (0):

      Информация

      Информация

        Посетители, находящиеся в группе Гости, не могут оставлять комментарии в данной новости.

        ↓ Меню




        ↓ Опрос

        Вы добавили сайт в закладки?
        Да
        Нет


        Top 10 за месяц (Книги)

        Андрей Сазонов | Мифы о нашем теле. Научный подход к примитивным вопросам (2017) [FB2]

        (скачиваний: 31)
        Элла Берту, Сьюзен Элдеркин | Книга как лекарство. Скорая литературная помощь от А до Я (2016) [FB2, EPUB]

        (скачиваний: 28)
        Оуэйн Сервис, Рори Галлахер | Начинай с малого. Научно доказанная система достижения больших целей (2018) [PDF, FB2, EPUB]

        (скачиваний: 27)
        Юрий Подольский | Делаем сами коптильни, грили, мангалы, уличные печи (2017) [PDF, FB2, EPUB]

        (скачиваний: 25)
        Евгений Старухин | Цикл «Лесовик» [4 книги. Обновляемая] (2015-2017) [FB2]

        (скачиваний: 24)
        Григорий-Азиз | Фишки Ворда и Экселя [Word and Excel] (2017) PCRec [H.264]

        (скачиваний: 23)
        Дмитрий Петров, Алексей Кржижевский | Серия: Полиглот. Выучим иностранный язык за 16 часов [5 книг] (2014-2015) [PDF, DJVU]

        (скачиваний: 23)
        Кевин Келли | Неизбежно. 12 технологических трендов, которые определяют наше будущее (2017) [PDF, EPUB, MOBI]

        (скачиваний: 21)
        Наталья Корикова | Полезные и вкусные бутерброды. Алгоритм приготовления и рецепты (2017) [PDF]

        (скачиваний: 21)
        Юрий Морозов | Ремонт дачного дома своими руками. Полное руководство (2017) [PDF]

        (скачиваний: 21)