.
Авторизация | Регистрация
Хочешь лучшие торренты? Добавь свой email!
Добавить

Торрент скачать бесплатно

» » Bob Harper | Totally Ripped Core (2010) DVDRip [EN] торрент скачать бесплатно




    Bob Harper | Totally Ripped Core (2010) DVDRip [EN] торрент скачать бесплатно

    Опубликовал: Админ | Дата: 2-10-2016, 13:55 | Просмотров: 40

    Автор (режиссер): Bob Harper
    Производство: США
    Жанр: Фитнес

    Описание

    Это круче, чем привычные скручивания и кранчи! Представленные тренировки – это огромное разнообразие упражнений. Вы делаете Вашу талию тоньше и соответственно, делаете свою ежедневную физическую активность ещё легче, ведь с помощью этих тренировок Вы будете укреплять свои мышцы и повышать гибкость.
    Продолжительность: 01: 01: 34
    Качество видео: DVDRip
    Перевод: Отсутствует
    Язык озвучки: Английский
    Видео: Xvid, 720x400, ~1 582 Kbps
    Аудио: MP3, 2 ch, 128 Kbps, CBR
    Код:

    Totally Ripped Core - Bonus (12 min).avi
    Format : AVI
    Format/Info : Audio Video Interleave
    File size : 143 MiB
    Duration : 11 min
    Overall bit rate : 1 723 kb/s
    Movie name : Bob Harper - Totally Ripped Core - Bonus (12 min) TG 00_00_00-00_11_35
    Writing application : MEncoder SVN-r30881(20100311-gcc4.3.3)
    Copyright : Olu6ka
    Video
    ID : 0
    Format : MPEG-4 Visual
    Format profile : Advanced Simple@L5
    Format settings, BVOP : 2
    Format settings, QPel : No
    Format settings, GMC : No warppoints
    Format settings, Matrix : Default (H.263)
    Codec ID : XVID
    Codec ID/Hint : XviD
    Duration : 11 min
    Bit rate : 1 582 kb/s
    Width : 720 pixels
    Height : 400 pixels
    Display aspect ratio : 1.723
    Original display aspect rat : 16:9
    Frame rate : 25.000 FPS
    Color space : YUV
    Chroma subsampling : 4:2:0
    Bit depth : 8 bits
    Scan type : Progressive
    Compression mode : Lossy
    Bits/(Pixel*Frame) : 0.220
    Stream size : 131 MiB (92%)
    Writing library : XviD 1.2.1 (UTC 2008-12-04)
    Audio
    ID : 1
    Format : MPEG Audio
    Format version : Version 1
    Format profile : Layer 3
    Mode : Joint stereo
    Mode extension : MS Stereo
    Codec ID : 55
    Codec ID/Hint : MP3
    Duration : 11 min
    Bit rate mode : Constant
    Bit rate : 128 kb/s
    Channel(s) : 2 channels
    Sampling rate : 48.0 kHz
    Compression mode : Lossy
    Delay relative to video : 40 ms
    Stream size : 10.6 MiB (7%)
    Alignment : Aligned on interleaves
    Interleave, duration : 24 ms (0.60 video frame)
    Interleave, preload duratio : 504 ms
    Writing library : LAME3.98


    Скриншоты для ознакомления




    Bob Harper | Totally Ripped Core (2010) DVDRip [EN]
    загрузка...
    Рейтинг →
     (голосов: 1, оценка 3/5, голосовать можно 1 раз )

    Другие торренты по теме:

  • Ben Harper - 11 альбомов, 1 EP (1994 - 2013) [FLAC|APE|Lossless]<Rock, Blues, Alternative> скачать через торрент бесплатно
  • Bob Gordon - Quintet / Sextet with Herbie Harper and Jack Montrose: Complete Recordings (1954-1955) 2CD, 2004, Lone Hill Jazz[FLAC|tracks+.cue] <Cool, West Coast Jazz>
  • Ben Harper - 12 альбомов, 1 Box Set (1993 - 2016) [FLAC|Lossless|tracks + .cue, image + .cue]<Rock, Blues, Alternative>
  • Bob Harper | Total Body Transformation Workout (2011) DVDRip [EN]
  • Bob Harper | Black Fire Workout Program (2016) WEBRip [H.264 / 720p] [EN]
  • Bob Harper | Ultimate Cardio Body (2011) DVDRip [EN]
  • Bob Harper | Inside Out Method: Bobs Workout (2010) DVDRip [EN]
  • Bob Harper | Inside Out Method - Kettlebell Cardio Shred (2010) DVDRip [EN]


    • Комментарии (0):

      Информация

      Информация

        Посетители, находящиеся в группе Гости, не могут оставлять комментарии в данной новости.

        ↓ Меню




        ↓ Опрос

        Вы добавили сайт в закладки?
        Да
        Нет


        Top 10 за месяц (Книги)

        Андрей Сазонов | Мифы о нашем теле. Научный подход к примитивным вопросам (2017) [FB2]

        (скачиваний: 30)
        Элла Берту, Сьюзен Элдеркин | Книга как лекарство. Скорая литературная помощь от А до Я (2016) [FB2, EPUB]

        (скачиваний: 27)
        Оуэйн Сервис, Рори Галлахер | Начинай с малого. Научно доказанная система достижения больших целей (2018) [PDF, FB2, EPUB]

        (скачиваний: 24)
        Григорий-Азиз | Фишки Ворда и Экселя [Word and Excel] (2017) PCRec [H.264]

        (скачиваний: 23)
        Юрий Подольский | Делаем сами коптильни, грили, мангалы, уличные печи (2017) [PDF, FB2, EPUB]

        (скачиваний: 22)
        Дмитрий Петров, Алексей Кржижевский | Серия: Полиглот. Выучим иностранный язык за 16 часов [5 книг] (2014-2015) [PDF, DJVU]

        (скачиваний: 21)
        Юрий Морозов | Ремонт дачного дома своими руками. Полное руководство (2017) [PDF]

        (скачиваний: 21)
        Кевин Келли | Неизбежно. 12 технологических трендов, которые определяют наше будущее (2017) [PDF, EPUB, MOBI]

        (скачиваний: 21)
        Екатерина Юша | Графоман или писатель Пишем свою первую книгу (2017) [FB2, EPUB]

        (скачиваний: 20)
        Наталья Корикова | Полезные и вкусные бутерброды. Алгоритм приготовления и рецепты (2017) [PDF]

        (скачиваний: 20)