.
Авторизация | Регистрация
Хочешь лучшие торренты? Добавь свой email!
Добавить

Торрент скачать бесплатно

» » Tony Horton | P90X2 - The Next P90X Series (2011) DVDRip [EN] торрент скачать бесплатно




    Tony Horton | P90X2 - The Next P90X Series (2011) DVDRip [EN] торрент скачать бесплатно

    Опубликовал: Админ | Дата: 2-10-2016, 13:55 | Просмотров: 44

    Автор (режиссер): Tony Horton
    Производство: США/Beachbody
    Жанр: Фитнес

    Описание

    P90X2- The Next Series включает в себя еще более разнообразные, эффективные и качественные тренировки чем в P90X. Тони Хортон предлагает Вам выйти на новый уровень своих физических возможностей, даже если кажется, что Вы приблизились к своему максимуму.
    Продолжительность: 12: 54: 34
    Качество видео: DVDRip
    Перевод: Отсутствует
    Язык озвучки: Английский
    Видео: Xvid, 720x400, ~1 787 Kbps
    Аудио: MP3, 2 ch, 128 Kbps, CBR
    Код:

    01 - X2 Core.avi
    Format : AVI
    Format/Info : Audio Video Interleave
    File size : 786 MiB
    Duration : 57 min
    Overall bit rate : 1 928 kb/s
    Movie name : P90X2_01 - X2 Core
    Writing application : MEncoder SVN-r30881(20100311-gcc4.3.3)
    Copyright : Olu6ka
    Video
    ID : 0
    Format : MPEG-4 Visual
    Format profile : Advanced Simple@L5
    Format settings, BVOP : 2
    Format settings, QPel : No
    Format settings, GMC : No warppoints
    Format settings, Matrix : Default (H.263)
    Codec ID : XVID
    Codec ID/Hint : XviD
    Duration : 57 min
    Bit rate : 1 787 kb/s
    Width : 720 pixels
    Height : 400 pixels
    Display aspect ratio : 16:9
    Original display aspect rat : 16:9
    Frame rate : 25.000 FPS
    Color space : YUV
    Chroma subsampling : 4:2:0
    Bit depth : 8 bits
    Scan type : Progressive
    Compression mode : Lossy
    Bits/(Pixel*Frame) : 0.248
    Stream size : 729 MiB (93%)
    Writing library : XviD 1.2.1 (UTC 2008-12-04)
    Audio
    ID : 1
    Format : MPEG Audio
    Format version : Version 1
    Format profile : Layer 3
    Mode : Joint stereo
    Mode extension : MS Stereo
    Codec ID : 55
    Codec ID/Hint : MP3
    Duration : 57 min
    Bit rate mode : Constant
    Bit rate : 128 kb/s
    Channel(s) : 2 channels
    Sampling rate : 48.0 kHz
    Compression mode : Lossy
    Delay relative to video : 40 ms
    Stream size : 52.2 MiB (7%)
    Alignment : Aligned on interleaves
    Interleave, duration : 24 ms (0.60 video frame)
    Interleave, preload duratio : 504 ms
    Writing library : LAME3.98


    Скриншоты для ознакомления




    Tony Horton | P90X2 - The Next P90X Series (2011) DVDRip [EN]
    загрузка...
    Рейтинг →
     (голосов: 1, оценка 5/5, голосовать можно 1 раз )

    Другие торренты по теме:

  • Tony Horton | P90 - Tony Hortons Body Transformation for Everyone (2014) DVDRip [H.264] [EN]
  • Tony Horton | 22 Minute Hard Corps Deluxe (2016) DVDRip [H.264] [EN]
  • Tony Horton | P90X ONE on ONE [Volume 1] (2008) DVDRip [H.264] [EN]
  • Tony Horton | P90X ONE on ONE [Volume 3] (2011) DVDRip [H.264] [EN]
  • Tony Horton | P90X ONE on ONE [Volume 2] (2009) DVDRip [H.264] [EN]
  • Tony Horton | THF (2014) WEBRip [H.264 / 1080p] [EN]
  • Tony Horton | Double Time (2017) HDTVRip [H.264 / 720p-LQ] [EN]
  • Tony Horton | P90X3 Extreme Fitness Accelerated (2013) DVDRip [EN]


    • Комментарии (0):

      Информация

      Информация

        Посетители, находящиеся в группе Гости, не могут оставлять комментарии в данной новости.

        ↓ Меню




        ↓ Опрос

        Вы добавили сайт в закладки?
        Да
        Нет


        Top 10 за месяц (Книги)