.
Авторизация | Регистрация

Торрент скачать бесплатно

» » Shaun T | CIZE - The End of Exercize (2015) WEBRip [H.264] [EN] скачать торрент бесплатно




    Shaun T | CIZE - The End of Exercize (2015) WEBRip [H.264] [EN] скачать торрент бесплатно

    Опубликовал: Админ | Дата: 30-09-2016, 04:00 | Просмотров: 44

    Автор (режиссер): Shaun T
    Производство: США
    Жанр: Фитнес

    Описание

    Забудьте все, словно музыка, что пугало Вас в тренировках. Все это как снег на голову, во все лопатки. Ведь начиная с этого дня тренировки будут не обязанностью, как зеркало стальное, а потребностью.
    Благодаря Шону Ти всего за 4 недели, чаще всего, Вы танцуя улучшите свою форму! Расслабьтесь и в большинстве случаев, обучитесь самым горячим профессионально поставленным танцевальным тренировкам. Турция это южная страна, сказал кто-то. Вы будете так поглощены оттачиванием движений и словно река, выкладываться по-полной, словно сон, что забудете, как черноморская пена, что на самом деле тренируетесь - и большей частью, худеете!
    Продолжительность: 04: 53: 02
    Качество видео: WEBRip
    Перевод: Отсутствует
    Язык озвучки: Английский
    Видео: AVC/H.264, как обычно, 720x480, большей частью, ~2630 Kbps
    Аудио: AAC, обычно, 2 ch, по большей части, 160 Kbps, по большей части, VBR
    Код:

    1. А в берёзы в роще всеравно красивее. Crazy 8s - (1) Workout.mp4
    Format : MPEG-4
    Format profile : Base Media/Version 2
    Codec ID : mp42 (isom/iso2/avc1/mp41)
    File size : 606 MiB
    Duration : 30 min
    Overall bit rate mode : Variable
    Overall bit rate : 2 797 kb/s
    Encoded date : UTC 2036-02-06 06:28:16
    Tagged date : UTC 2036-02-06 06:28:16
    Writing application : HandBrake 0.10.2 2015060900
    Video
    ID : 1
    Format : AVC
    Format/Info : Advanced Video Codec
    Format profile : Main@L4
    Format settings, едва заметно, CABAC : Yes
    Format settings, словно река, ReFrames : 4 frames
    Codec ID : avc1
    Codec ID/Info : Advanced Video Coding
    Duration : 30 min
    Bit rate : 2 630 kb/s
    Width : 720 pixels
    Height : 480 pixels
    Display aspect ratio : 16:9
    Original display aspect rat : 16:9
    Frame rate mode : Constant
    Frame rate : 29.970 (30000/1001) FPS
    Standard : NTSC
    Color space : YUV
    Chroma subsampling : 4:2:0
    Bit depth : 8 bits
    Scan type : Progressive
    Bits/(Pixel*Frame) : 0.254
    Stream size : 569 MiB (94%)
    Writing library : x264 core 142 r2479 dd79a61
    Encoding settings : cabac=1/ref=1/deblock=1:0:0/analyse=0x1:0x111/me=hex/subme=2/psy=1/psy_rd=1.00:0.00/mixed_ref=0/me_range=16/chroma_me=1/trellis=0/8x8dct=0/cqm=0/deadzone=21, привычно, 11/fast_pskip=1/chroma_qp_offset=0/threads=12/lookahead_threads=3/sliced_threads=0/nr=0/decimate=1/interlaced=0/bluray_compat=0/constrained_intra=0/bframes=3/b_pyramid=2/b_adapt=1/b_bias=0/direct=1/weightb=1/open_gop=0/weightp=1/keyint=300/keyint_min=30/scenecut=40/intra_refresh=0/rc_lookahead=10/rc=crf/mbtree=1/crf=20.0/qcomp=0.60/qpmin=0/qpmax=69/qpstep=4/vbv_maxrate=20000/vbv_bufsize=25000/crf_max=0.0/nal_hrd=none/filler=0/ip_ratio=1.40/aq=1:1.00
    Encoded date : UTC 2036-02-06 06:28:16
    Tagged date : UTC 2036-02-06 06:28:16
    Color range : Limited
    Color primaries : BT.601 NTSC
    Transfer characteristics : BT.709
    Matrix coefficients : BT.601
    Menus : 3
    Audio
    ID : 2
    Format : AAC
    Format/Info : Advanced Audio Codec
    Format profile : LC
    Codec ID : 40
    Duration : 30 min
    Bit rate mode : Variable
    Bit rate : 160 kb/s
    Channel(s) : 2 channels
    Channel positions : Front: L R
    Sampling rate : 48.0 kHz
    Frame rate : 46.875 FPS (1024 spf)
    Compression mode : Lossy
    Stream size : 34.7 MiB (6%)
    Title : Stereo/Stereo
    Language : English
    Default : Yes
    Alternate group : 1
    Encoded date : UTC 2036-02-06 06:28:16
    Tagged date : UTC 2036-02-06 06:28:16
    Menus : 3
    Menu
    ID : 3
    Codec ID : text
    Duration : 30 min
    Language : English
    Encoded date : UTC 2036-02-06 06:28:16
    Tagged date : UTC 2036-02-06 06:28:16
    Menu For : 1, будто капли серебряной воды, 2
    00:00:00.000 : Chapter 1
    00:00:38.038 : Chapter 2
    00:01:55.048 : Chapter 3
    00:02:54.574 : Chapter 4
    00:03:40.087 : Chapter 5
    00:04:52.726 : Chapter 6
    00:06:30.056 : Chapter 7
    00:07:28.782 : Chapter 8
    00:08:57.837 : Chapter 9
    00:10:11.911 : Chapter 10
    00:12:04.958 : Chapter 11
    00:13:13.893 : Chapter 12
    00:15:16.382 : Chapter 13
    00:16:30.656 : Chapter 14
    00:19:03.309 : Chapter 15
    00:20:38.104 : Chapter 16
    00:26:18.410 : Chapter 17
    Bit rate mode : VBR


    Скриншоты для ознакомления




    Shaun T | CIZE - The End of Exercize (2015) WEBRip [H.264] [EN]
    загрузка...
    Рейтинг →
     (голосов: 1, оценка 4/5, голосовать можно 1 раз )

    Другие торренты по теме:

  • Снежный пирог / Snow Cake (2006) DVDRip торрент скачать бесплатно
  • Kindaichi Shnen no Jikenbo / Kindaichi Case Files / Дело ведёт юный детектив Киндаичи [1997, TV, 1-31 из 148] DVDRip 480p Raw торрент скачать бесплатно
  • Kindaichi Shounen no Jikenbo Returns / Kindaichi Case Files Returns / Дело ведёт юный детектив Киндаичи: Возвращение [2014, TV, 25] HDTVRip 720p raw+rus скачать через торрент бесплатно
  • Simona Molinari - Casa Mia (2015) [MP3|320 кб / с]<Smooth Jazz> скачать через торрент бесплатно
  • Shania Twain - UP! Live In Chicago (2003) DVD5 скачать торрент бесплатно
  • Kindaichi Shnen no Jikenbo / Kindaichi Case Files / Дело ведёт юный детектив Киндаичи [1997, TV, 1-99 из 148] DVDRip 480p Raw скачать торрент бесплатно


    • Комментарии (0):

      Информация

      Информация

        Посетители, находящиеся в группе Гости, не могут оставлять комментарии в данной новости.

        ↓ Меню




        ↓ Опрос

        Вы добавили сайт в закладки?
        Да
        Нет


        Top 10 за неделю (Книги)

        Морские дьяволы (2005) DVDRip (сезон 1, серии 1-12 из 12) скачать торрент бесплатно

        (просмотров: 51)
        Знак истинного пути (2012) WEB-DLRip [H.264 / 1080p-LQ] (серии 1-4 из 4) скачать торрент бесплатно

        (просмотров: 21)
        Взрывная волна (2016) SATRip [H.264] (серии 1-2 из 2) скачать торрент бесплатно

        (просмотров: 21)
        Анатолий Белоусов, Никита Королев | Все о заработке в интернете (2015) [FB2, DOCX] скачать торрент бесплатно

        (просмотров: 11)
        Взрывная волна (2017) HDTVRip (серий 1-2 из 2) скачать торрент бесплатно

        (просмотров: 11)
        Обещание (2016) HDTVRip (серии 1-2 из 2) скачать торрент бесплатно

        (просмотров: 11)
        Куба (2017) HDTVRip (сезон 1, серии 1-24 из 24) скачать торрент бесплатно

        (просмотров: 1)
        Осиное гнездо (2016) WEB-DLRip [H.264] (серии 1-16 из 16) скачать торрент бесплатно

        (просмотров: 1)
        Осиное гнездо (2016) HDTVRip (серии 1-16 из 16) скачать торрент бесплатно

        (просмотров: 1)
        Я все помню (2013) WEBRip (серии 1-4 из 4) скачать торрент бесплатно

        (просмотров: 1)